<?xml version="1.0" standalone="no"?>
<!DOCTYPE svg PUBLIC "-//W3C//DTD SVG 1.1//EN" "http://www.w3.org/Graphics/SVG/1.1/DTD/svg11.dtd" >
<svg xmlns="http://www.w3.org/2000/svg">
<metadata></metadata>
<defs>
<font id="robotolight_italic" horiz-adv-x="1111" >
<font-face units-per-em="2048" ascent="1536" descent="-512" />
<missing-glyph horiz-adv-x="493" />
<glyph unicode="&#xfb01;" horiz-adv-x="1077" d="M112 984l17 98h175l15 114q12 83 44 150.5t83.5 115t121 72.5t155.5 24q71 -1 137.5 -18t131.5 -43l-31 -102q-57 26 -114.5 40.5t-119.5 15.5q-123 1 -196.5 -67.5t-91.5 -186.5l-17 -115h246l-17 -98h-245l-171 -984h-119l171 984h-175zM678 0l189 1082h119l-188 -1082 h-120z" />
<glyph horiz-adv-x="0" />
<glyph unicode="&#xd;" horiz-adv-x="493" />
<glyph horiz-adv-x="0" />
<glyph horiz-adv-x="0" />
<glyph horiz-adv-x="10" />
<glyph unicode="&#x9;" horiz-adv-x="10" />
<glyph unicode=" "  horiz-adv-x="493" />
<glyph unicode="&#x09;" horiz-adv-x="493" />
<glyph unicode="&#xa0;" horiz-adv-x="493" />
<glyph unicode="!" horiz-adv-x="458" d="M56 70q1 16 8 31t18.5 26t26.5 18t32 7q35 1 57.5 -23t19.5 -59q-2 -33 -27 -55.5t-59 -23.5t-56 21.5t-20 57.5zM133 405l176 1051h124l-190 -1051h-110z" />
<glyph unicode="&#x22;" horiz-adv-x="580" d="M212 1083l54 319l21 134h97l-23 -146l-68 -307h-81zM440 1083l56 327l20 126h97l-23 -144l-68 -309h-82z" />
<glyph unicode="#" horiz-adv-x="1242" d="M31 410l16 93h262l158 441h-270l17 96h286l150 416h102l-149 -416h299l149 416h103l-150 -416h222l-17 -96h-238l-158 -441h247l-17 -93h-263l-146 -410h-103l147 410h-298l-147 -410h-102l146 410h-246zM412 503h299l157 441h-299z" />
<glyph unicode="$" d="M84 418h119q-6 -72 8.5 -133t49.5 -105t90.5 -69.5t130.5 -26.5q65 -1 125.5 17.5t108.5 55t79.5 89t38.5 120.5q7 65 -12.5 113t-56.5 84.5t-86.5 63t-103.5 47.5q-73 29 -137 64.5t-110.5 84t-71 113t-17.5 152.5q7 87 41.5 156t90 117.5t128.5 77.5t156 37l35 201h102 l-35 -203q87 -13 146 -54t93.5 -101t46 -135t4.5 -156h-118q6 64 -3.5 124.5t-38 108.5t-77.5 77.5t-122 31.5q-65 1 -122 -18t-101 -55.5t-72.5 -89t-35.5 -117.5q-7 -68 12 -116.5t55.5 -84.5t87.5 -61.5t107 -47.5q73 -29 137 -64t110 -83.5t70.5 -113t17.5 -150.5 q-7 -90 -43 -158.5t-93.5 -117t-132.5 -76.5t-159 -35l-33 -190h-101l33 190q-91 9 -158.5 45t-110.5 93t-61.5 133t-10.5 165z" />
<glyph unicode="%" horiz-adv-x="1478" d="M194 1099l7 76q7 62 32.5 117.5t66.5 97.5t95.5 66t120.5 22q62 -2 109 -27.5t78 -67t44.5 -95.5t9.5 -112l-8 -77q-7 -61 -32 -116t-65.5 -96.5t-95 -65.5t-119.5 -22q-62 1 -109 26.5t-78.5 67t-45.5 95t-10 111.5zM272 175l885 1131l69 -48l-881 -1136zM291 1097 q-3 -39 3.5 -76.5t24.5 -67t48.5 -48.5t74.5 -20q46 -1 82.5 16.5t63 47.5t42.5 69t22 81l8 78q3 38 -3 76t-24 68t-48 49.5t-74 20.5q-46 1 -82.5 -17t-63.5 -48t-43.5 -69t-21.5 -81zM763 279l7 77q7 61 32.5 116.5t66.5 97.5t95.5 65.5t119.5 22.5q62 -2 109.5 -27 t78.5 -66.5t44.5 -95.5t9.5 -112l-7 -78q-7 -62 -32.5 -117t-66.5 -96.5t-95.5 -65.5t-119.5 -22q-62 1 -109.5 26.5t-78 67t-44.5 95.5t-10 112zM859 277q-3 -39 3.5 -76.5t24.5 -67.5t48.5 -49t74.5 -20q46 -1 82.5 16.5t63.5 47.5t43 69.5t22 81.5l8 79q3 39 -3 77 t-23.5 68t-48 48.5t-75.5 19.5q-46 1 -83 -16.5t-63.5 -47t-43 -69t-21.5 -81.5z" />
<glyph unicode="&#x26;" horiz-adv-x="1232" d="M68 363q6 72 38 133.5t79 113t104 95t114 79.5l19 12q-23 39 -44.5 79.5t-37 83t-23.5 87t-4 91.5q6 75 35 138t77 108.5t112 70t141 23.5q59 -2 110.5 -22t88.5 -56.5t56.5 -87t15.5 -112.5q-4 -52 -25 -97t-52.5 -84t-71 -72.5t-79.5 -61.5l-151 -105l311 -461 q57 75 92 157t50 176h108q-16 -121 -60.5 -226t-125.5 -196l152 -229h-132l-97 144q-44 -38 -91.5 -68.5t-99.5 -52t-107.5 -33t-113.5 -10.5q-85 1 -159 27.5t-127.5 75.5t-81 119.5t-20.5 160.5zM189 363q-9 -66 9.5 -117.5t56 -87.5t91 -55.5t115.5 -20.5 q50 -1 96.5 10.5t89.5 31.5t83 48t76 60l-318 469l-11 15l-49 -35q-38 -29 -78 -63t-73.5 -74t-57.5 -85.5t-30 -95.5zM432 1142q-4 -38 2 -74.5t18.5 -72t29.5 -69t36 -64.5l138 99q31 22 61 46.5t54.5 54t41 63.5t20.5 75q4 39 -7 71t-33 55t-53.5 36t-69.5 13 q-50 1 -92 -17.5t-72.5 -51t-49.5 -75t-24 -89.5z" />
<glyph unicode="'" horiz-adv-x="348" d="M190 1090l54 312l22 134h101l-23 -147l-63 -299h-91z" />
<glyph unicode="(" horiz-adv-x="643" d="M114.5 392q4.5 94 16.5 177l2 15q14 95 39 196t61.5 201.5t85 197t110 181.5t137 155t165.5 118l21 -82q-114 -78 -198.5 -189t-144.5 -239.5t-97.5 -266t-58.5 -266.5l-3 -20q-10 -71 -17 -155.5t-5.5 -174.5t13 -180.5t37 -173.5t67.5 -154.5t104 -123.5l-35 -77 q-74 55 -127.5 130t-89 163t-55 184t-26 193t-2 191z" />
<glyph unicode=")" horiz-adv-x="657" d="M-124 -393q76 52 139 119.5t113.5 146t90.5 165.5t70 176.5t51 180.5t35 177l4 20q10 70 16.5 154.5t5 174.5t-13 181t-37 174.5t-67 155.5t-103.5 123l35 76q74 -54 127 -129.5t88 -163.5t54.5 -184.5t26.5 -194t3 -191t-16 -175.5l-3 -16q-15 -96 -39.5 -197 t-60.5 -201.5t-84.5 -196t-110 -180t-137 -154.5t-166.5 -119z" />
<glyph unicode="*" horiz-adv-x="853" d="M105 1111l46 97l305 -124l54 372h104l-66 -369l331 125l17 -106l-342 -115l172 -296l-89 -59l-160 304l-244 -301l-79 66l257 298z" />
<glyph unicode="+" horiz-adv-x="1131" d="M76 628l20 112h421l81 466h120l-81 -466h430l-20 -112h-429l-84 -482h-120l84 482h-422z" />
<glyph unicode="," horiz-adv-x="390" d="M-84 -218q51 59 87 122.5t50 141.5l24 142h116l-21 -138q-16 -98 -64.5 -179t-124.5 -144z" />
<glyph unicode="-" horiz-adv-x="578" d="M45 592l18 101h467l-18 -101h-467z" />
<glyph unicode="." horiz-adv-x="484" d="M48 72q3 35 28.5 59.5t60.5 25.5q36 1 59 -24t20 -61q-2 -35 -27.5 -57.5t-60.5 -23.5t-58.5 22t-21.5 59z" />
<glyph unicode="/" horiz-adv-x="799" d="M-101 -125l865 1581h113l-864 -1581h-114z" />
<glyph unicode="0" d="M108 468q2 72 11 139l38 246q11 74 30 150t48.5 146t71 131t97 105.5t126.5 68.5t160 22q85 -2 145.5 -30t100.5 -75t63 -108.5t32 -130t7 -140.5t-11 -139l-38 -245q-12 -75 -31 -151t-48 -146.5t-70 -132t-96.5 -106.5t-126.5 -70t-160 -22q-85 2 -145.5 31t-101 76 t-63 109t-32 131t-7.5 141zM225.5 378q3.5 -56 17 -109t41 -94t71.5 -67t109 -28q69 -3 123.5 19t96.5 60.5t73 90.5t53 110t36 118t22 116l43 276q7 48 10.5 103t0 110.5t-16.5 107t-40.5 92t-71.5 65.5t-109 27q-69 2 -124 -19t-97 -58.5t-73.5 -88.5t-53.5 -108t-36 -117 t-22 -116l-43 -275q-6 -47 -9.5 -103t0 -112z" />
<glyph unicode="1" d="M268 1162l21 118l508 181h23l-249 -1461h-120l228 1308z" />
<glyph unicode="2" d="M38 0l15 97l543 536q45 45 95 95.5t94 107t76 118t40 128.5q8 63 -5.5 116t-45 92t-81 61t-113.5 24q-77 2 -139.5 -24t-109.5 -71.5t-77.5 -108t-42.5 -134.5l-115 -1q12 96 52.5 177t104.5 140.5t148 92t183 31.5q85 -2 156 -29t119.5 -77t72.5 -120.5t15 -158.5 q-8 -80 -44 -153t-87 -140t-110 -126.5t-113 -112.5l-466 -459h739l-17 -101h-887z" />
<glyph unicode="3" d="M60 395h118q-6 -68 11 -125t54 -98.5t91.5 -65t123.5 -25.5q75 -2 139 19.5t112.5 63t79 101t38.5 134.5q7 74 -12 128.5t-59 90t-97.5 53t-126.5 19.5l-127 1l19 102l114 -2q68 0 133 18.5t117.5 55t88 91.5t43.5 128q7 64 -5.5 116.5t-44 91t-80.5 60t-115 23.5 q-71 2 -130.5 -19.5t-106 -61t-78 -96t-44.5 -123.5l-116 -1q12 91 54.5 166.5t106.5 128.5t146 81.5t174 26.5q88 -2 158 -31t117.5 -81t69.5 -124.5t14 -160.5q-6 -64 -32.5 -116.5t-67.5 -94.5t-92.5 -73.5t-107.5 -53.5q112 -41 164 -131t42 -208q-9 -98 -51 -177 t-108.5 -134.5t-152.5 -84.5t-182 -27q-91 2 -166.5 32.5t-128 84.5t-79 130t-18.5 168z" />
<glyph unicode="4" d="M27 368l8 67l827 1021h134l-171 -987h220l-18 -101h-219l-65 -368h-119l64 368h-661zM190 469h515l144 820l-62 -83z" />
<glyph unicode="5" d="M126 384h113q0 -65 16 -120t48.5 -95t82.5 -63.5t119 -25.5q86 -3 151 29t110 86.5t71.5 126t34.5 149.5q7 67 -4 129.5t-42 111.5t-82.5 79t-126.5 32q-84 2 -152.5 -24.5t-132.5 -78.5l-96 28l190 708h711l-20 -111h-605l-141 -492q60 41 130.5 60.5t142.5 18.5 q98 -1 168 -40t112.5 -102.5t59.5 -146t8 -171.5q-10 -103 -47 -194t-99.5 -158.5t-150 -105.5t-197.5 -35q-90 2 -159.5 32.5t-117 84.5t-72 127.5t-23.5 160.5z" />
<glyph unicode="6" d="M111 385q-6 64 2 129l17 129q16 111 47.5 215t80 196t114 168t149 130.5t185.5 85t224 30.5h22l-12 -105h-16q-137 0 -244 -44.5t-187.5 -122.5t-136.5 -184.5t-90 -229.5q72 85 167 130.5t207 43.5q98 -2 167 -43.5t110.5 -107.5t57.5 -149.5t7 -171.5q-9 -97 -46 -189 t-99 -163t-147.5 -113t-191.5 -40q-72 2 -131 24t-104 60t-77 89t-50.5 110t-24.5 123zM232 511q-8 -71 1.5 -146.5t41 -137.5t87 -103t141.5 -43q81 -2 145 33t110 92.5t72.5 129.5t34.5 144q7 66 -2.5 132t-39 119t-81 86.5t-127.5 35.5q-53 1 -112 -16t-111 -49t-92 -77 t-56 -99z" />
<glyph unicode="7" d="M180 0l812 1354h-801l16 102h928l-8 -69l-817 -1387h-130z" />
<glyph unicode="8" d="M65 378q6 71 34 129.5t72 105t101 81t121 57.5q-45 24 -79 58t-55.5 75.5t-30.5 89t-5 98.5q7 94 46.5 169.5t102.5 128.5t144.5 80.5t173.5 25.5q84 -2 154 -30.5t118 -78.5t71.5 -120.5t16.5 -156.5q-6 -65 -30.5 -118.5t-63.5 -96.5t-89.5 -76t-107.5 -56 q52 -24 92.5 -59.5t67 -80.5t38.5 -98t8 -110q-8 -101 -52.5 -179t-113.5 -131.5t-157 -80t-184 -24.5q-89 2 -164.5 29.5t-129 78t-80.5 124t-19 166.5zM184 376q-8 -68 10 -122.5t56 -92.5t92.5 -59t120.5 -22q72 -2 138.5 19t118 61.5t85 99.5t41.5 134q7 66 -11 121 t-56 95t-92 62.5t-119 24.5q-72 1 -138.5 -21t-118 -64.5t-85.5 -102.5t-42 -133zM341 1073q-6 -60 9.5 -110t48 -86.5t81 -57.5t108.5 -22q66 -2 125 19t105 60t76 94t36 121q6 59 -9.5 110t-48.5 89.5t-81 60.5t-108 24q-67 1 -126.5 -20.5t-105 -62t-74.5 -96.5t-36 -123 z" />
<glyph unicode="9" d="M155 958q10 99 48 193t101 167t150.5 117t195.5 42q80 -2 141 -27t105 -67t71.5 -98t41.5 -120t16 -133t-6 -137l-15 -116q-23 -166 -79.5 -310.5t-151 -251t-229.5 -168t-316 -61.5h-30l12 104h24q142 0 248.5 42.5t183 119.5t127.5 183.5t82 235.5q-35 -44 -77 -80.5 t-90 -63t-101 -40.5t-111 -12q-97 2 -165.5 45.5t-110.5 111.5t-57.5 153t-7.5 171zM273 963q-7 -63 2 -130.5t37.5 -123t78.5 -91.5t125 -38q63 -2 120 17.5t105.5 54.5t87 82.5t65.5 102.5l8 70q6 48 6 101t-8 104t-25.5 98t-48 83t-75 57.5t-105.5 23.5 q-83 2 -148.5 -34.5t-113 -96t-75.5 -133.5t-36 -147z" />
<glyph unicode=":" horiz-adv-x="427" d="M31 72q3 35 28.5 59.5t60.5 25.5q36 1 59 -24t20 -61q-2 -35 -27.5 -57.5t-60.5 -23.5t-58.5 22t-21.5 59zM191 995q3 35 28.5 59.5t60.5 25.5q36 1 59 -24t20 -61q-2 -35 -27.5 -57.5t-60.5 -23.5t-58.5 22t-21.5 59z" />
<glyph unicode=";" horiz-adv-x="397" d="M-84 -218q51 59 87 122.5t50 141.5l24 142h116l-21 -138q-16 -98 -64.5 -179t-124.5 -144zM180 995q3 35 28.5 59.5t60.5 25.5q36 1 59 -24t20 -61q-2 -35 -27.5 -57.5t-60.5 -23.5t-58.5 22t-21.5 59z" />
<glyph unicode="&#x3c;" horiz-adv-x="1026" d="M75 612l17 96l872 379l-24 -133l-728 -302l624 -300l-22 -121z" />
<glyph unicode="=" horiz-adv-x="1109" d="M112 418l19 106h811l-19 -106h-811zM183 829l19 106h812l-19 -106h-812z" />
<glyph unicode="&#x3e;" horiz-adv-x="1039" d="M54 227l23 131l743 304l-638 303l21 118l757 -379l-17 -97z" />
<glyph unicode="?" horiz-adv-x="912" d="M172 1115q12 82 48 149.5t91.5 115.5t128 73.5t156.5 23.5q79 -2 140 -30.5t101 -77t57.5 -114.5t10.5 -144q-7 -71 -34 -131t-67.5 -113t-90.5 -99t-103 -88q-69 -55 -106.5 -122t-54.5 -154l-110 -2q7 60 23.5 110t42.5 93.5t61.5 83t81.5 78.5q42 36 81.5 72t72 77 t54.5 88t28 106q6 52 -3 99t-33 82.5t-64 56.5t-97 23q-60 1 -110 -17t-88.5 -52t-64 -81.5t-37.5 -104.5zM256 70q3 34 27 57.5t59 24.5t57 -23t20 -59q-3 -33 -28 -55.5t-58 -23.5q-35 -1 -57 21.5t-20 57.5z" />
<glyph unicode="@" horiz-adv-x="1824" d="M74 245.5q0 112.5 21 227.5q22 123 67 241.5t111 224.5t151 195t188 153t222.5 99.5t253.5 33.5q132 -2 233.5 -37t175 -97t120 -146t69.5 -184t23 -211t-20 -227q-10 -59 -28.5 -122t-46 -123.5t-65 -114.5t-85 -94t-106.5 -63t-129 -21q-44 1 -80.5 15t-63.5 38.5 t-42.5 60t-18.5 79.5q-29 -39 -62 -75t-72 -63t-84.5 -42.5t-97.5 -13.5q-56 2 -94 24t-62 57.5t-35 80.5t-13.5 93.5t1.5 96.5t12 89q11 61 33 127.5t54 130t74 121t94.5 100t115 67t135.5 23.5q77 -2 135.5 -30t115.5 -77l-135 -574q-6 -36 -8.5 -77.5t7.5 -77.5t35.5 -61 t73.5 -27q56 -2 101.5 18.5t81.5 56.5t63.5 83t47.5 98t33 102t21 95q18 104 21.5 204t-13 189.5t-54.5 165t-101 130.5t-153.5 86.5t-212.5 33.5q-120 2 -226.5 -30.5t-198 -91.5t-167 -140t-134 -176.5t-99 -201.5t-61.5 -215q-19 -98 -21.5 -198t14.5 -192t55.5 -172.5 t101 -140.5t151 -95t206.5 -36q88 -2 173 19t164 59l23 -82q-81 -48 -176 -68t-189 -19q-132 1 -234 38.5t-175.5 102t-121 152.5t-70.5 190.5t-23 215zM608.5 284.5q-1.5 -37.5 3.5 -74t19 -65.5t39.5 -48.5t66.5 -21.5q53 -3 101 19t87.5 59t69 84t45.5 93l130 520 q-32 24 -67 35.5t-75 13.5q-61 2 -112 -19t-92.5 -58t-74 -86t-57 -103t-41 -109.5t-26.5 -104.5q-5 -27 -10 -62t-6.5 -72.5z" />
<glyph unicode="A" horiz-adv-x="1251" d="M-79 0l787 1456h117l281 -1456h-121l-76 408h-638l-217 -408h-133zM326 513h563l-144 789z" />
<glyph unicode="B" horiz-adv-x="1227" d="M73 0l253 1456l410 -1q89 -2 166.5 -23.5t133.5 -66.5t85 -115q22 -53 22 -123q0 -22 -2 -45q-6 -62 -29 -113t-59.5 -92t-85 -71.5t-104.5 -50.5q55 -17 96.5 -50.5t68.5 -78.5q26 -44 38 -98q9 -40 9 -81q0 -14 -1 -29q-8 -104 -52.5 -183t-114 -131.5t-159.5 -78.5 q-86 -25 -181 -25h-7h-487zM213 104l350 -1q74 0 141 20t119.5 59t86.5 97.5t43 136.5q2 20 2 39q0 43 -11 79q-16 52 -51 88t-87 55.5t-116 21.5l-373 1zM334 803l319 -1q68 1 130.5 18t112 52.5t82 88.5t40.5 126q2 19 2 37q0 48 -14 84q-19 50 -58 81t-94.5 45t-120.5 16 l-303 1z" />
<glyph unicode="C" horiz-adv-x="1300" d="M127 481q-1 18 -1 36q0 60 8 119l28 183q13 84 40 166t67.5 156t94.5 136t122 107q68 46 148 70q74 23 160 22h14q108 -2 190.5 -37.5t137.5 -98.5q56 -64 84 -150q28 -84 28 -184v-7l-121 1q0 80 -19 147.5t-58.5 116.5t-101 77.5t-146.5 30.5h-14q-108 0 -191 -44 q-89 -48 -153 -127t-103 -178.5t-55 -201.5l-29 -186q-9 -59 -9 -122v-6q0 -59 10 -117q10 -60 32.5 -115t60 -96.5t91 -67t126.5 -27.5h20q82 0 149 22q75 25 132 73.5t97 118t65 155.5l119 1q-25 -110 -76.5 -198.5t-126.5 -151t-173 -94.5q-89 -30 -193 -30h-19 q-89 2 -158.5 30t-120.5 75.5t-84.5 110.5t-51 135t-20.5 150z" />
<glyph unicode="D" horiz-adv-x="1311" d="M73 0l253 1456l388 -1q138 -3 239 -58.5t163 -146.5q62 -92 86 -210q14 -70 14 -144q0 -50 -6 -102l-20 -133q-21 -140 -81.5 -261t-153.5 -210.5t-216 -139.5q-121 -50 -264 -50h-6h-396zM213 104l260 -1q123 0 224.5 43.5t178 119t126 177.5t67.5 218l20 137 q7 51 7 101t-7 99q-14 98 -59.5 175.5t-124 125.5t-194.5 51l-281 1z" />
<glyph unicode="E" horiz-adv-x="1140" d="M73 0l253 1456h877l-19 -105h-754l-96 -549h661l-18 -104h-660l-104 -594h760l-18 -104h-882z" />
<glyph unicode="F" horiz-adv-x="1127" d="M73 0l253 1456h878l-19 -105h-755l-99 -566h660l-19 -105h-658l-119 -680h-122z" />
<glyph unicode="G" horiz-adv-x="1368" d="M142 484q-1 23 -1 46q0 58 8 115l27 177q13 86 40 168.5t68 156t95.5 135t122.5 105.5t150 67q75 22 162 22h15q99 -2 179.5 -32t139 -85.5t91.5 -134.5t36 -179h-120q-7 152 -92 237t-239 89h-14q-109 0 -194 -43q-90 -46 -155 -123.5t-105.5 -177t-56.5 -203.5 l-28 -180q-8 -54 -8 -110q0 -9 1 -18q1 -66 13.5 -127.5t38.5 -116t67 -96t98 -66t133 -25.5h16q44 0 90 5q53 5 104.5 20t98.5 39.5t86 61.5l66 376h-379l18 104h501l-84 -518q-44 -57 -105.5 -94.5t-131.5 -59.5t-144 -31q-66 -8 -127 -8h-13q-92 1 -164.5 28.5 t-127.5 74.5t-92.5 110.5t-58 136.5t-25.5 154z" />
<glyph unicode="H" horiz-adv-x="1416" d="M73 0l253 1456h122l-114 -654h804l114 654h124l-254 -1456h-123l122 698h-804l-122 -698h-122z" />
<glyph unicode="I" horiz-adv-x="539" d="M99 0l253 1456h122l-253 -1456h-122z" />
<glyph unicode="J" horiz-adv-x="1103" d="M35 401h122q-3 -26 -3 -50q0 -40 8 -75q11 -58 42 -100t82 -66.5t123 -26.5h11q71 0 130 25q62 28 108.5 76t76 112t40.5 136l175 1024h123l-175 -1023q-14 -98 -55 -182t-104.5 -145.5t-148.5 -95.5q-81 -31 -177 -31h-12q-96 2 -168.5 33t-119.5 86t-67 132 q-14 53 -14 114q0 28 3 57z" />
<glyph unicode="K" horiz-adv-x="1263" d="M73 0l253 1456h122l-135 -776l233 210l618 566h163l-711 -654l494 -802h-138l-449 721l-238 -205l-90 -516h-122z" />
<glyph unicode="L" horiz-adv-x="1057" d="M73 0l253 1456h123l-235 -1352h698l-18 -104h-821z" />
<glyph unicode="M" horiz-adv-x="1729" d="M73 0l253 1456h158l297 -1282l744 1282h165l-253 -1456h-122l111 639l119 630l-741 -1269h-94l-302 1279l-103 -646l-110 -633h-122z" />
<glyph unicode="N" horiz-adv-x="1420" d="M73 0l253 1456h118l598 -1249l217 1249h121l-252 -1456h-118l-597 1248l-217 -1248h-123z" />
<glyph unicode="O" horiz-adv-x="1354" d="M124 489q-1 19 -1 39q0 61 8 121l23 156q13 86 40.5 169.5t69 158.5t96.5 139t124 110t151 71q76 23 164 23h14q92 -2 164 -30.5t125 -76t87.5 -112t53.5 -138t22 -153.5q1 -17 1 -35q0 -63 -9 -126l-23 -155q-14 -86 -41 -170t-68 -159t-95.5 -138.5t-123 -109 t-150.5 -70.5q-76 -23 -165 -23h-14q-92 2 -164 30t-125 76t-88 112t-53.5 137.5t-22.5 153.5zM244 520q0 -66 11.5 -127t35.5 -116t63.5 -96.5t96 -66.5t132.5 -27h14q72 0 133 19q67 21 122.5 60t98.5 93t75.5 117t53.5 133t32 140l24 160q8 63 8 128q0 3 1 5 q1 62 -11 122q-12 62 -35.5 116t-63 95.5t-96 66.5t-132.5 27h-14q-72 1 -133 -19q-67 -22 -122 -61.5t-99 -93.5t-76.5 -117t-53.5 -132.5t-32 -138.5l-24 -159q-9 -59 -8 -121q-1 -4 -1 -7z" />
<glyph unicode="P" horiz-adv-x="1233" d="M73 0l253 1456l474 -1q97 -3 176.5 -32.5t133.5 -83.5q56 -55 82 -133q20 -59 20 -129q0 -24 -3 -49q-11 -111 -57.5 -193t-119 -136t-167 -80.5t-199.5 -26.5l-368 1l-103 -593h-122zM316 697l355 -1q79 0 150.5 20.5t127 61.5t92 103.5t46.5 145.5q3 24 3 47 q0 47 -12 86q-16 59 -54.5 100.5t-96 64.5t-130.5 25l-367 1z" />
<glyph unicode="Q" horiz-adv-x="1354" d="M120 490q-1 20 -1 39q0 60 8 120l23 156q13 86 40.5 169.5t68.5 158.5t96 139t124 110t151 71q76 23 164 23h14q92 -2 164 -30t125.5 -76t88.5 -112t53.5 -138t21.5 -154q1 -18 1 -35q0 -63 -9 -126l-23 -155q-15 -94 -43.5 -182t-74.5 -165.5t-110.5 -142t-150.5 -110.5 l216 -233l-91 -71l-242 256q-41 -10 -81.5 -15.5t-82.5 -5.5q-92 1 -163 29t-124 76t-87.5 112.5t-53.5 138.5t-22 153zM240 520.5q0 -65.5 11.5 -127t35.5 -116.5t63 -96.5t95.5 -66.5t132.5 -27h14q72 0 134 19q67 21 122.5 60t98.5 93t75.5 117t53.5 133t32 140l24 159 q8 63 8 128q1 3 1 6q0 63 -11 122q-12 61 -35.5 115.5t-63 96t-96.5 66.5t-133 27h-13q-72 0 -133 -19q-67 -22 -122.5 -61.5t-99 -93.5t-76 -117t-53.5 -132.5t-32 -138.5l-24 -159q-9 -62 -9 -127.5z" />
<glyph unicode="R" horiz-adv-x="1271" d="M70 0l253 1456l452 -1q96 -2 176 -30t137 -81q56 -52 84 -130q20 -57 20 -127q0 -25 -3 -52q-8 -78 -38 -143t-77.5 -116t-110.5 -88t-135 -59l248 -615l-1 -14h-130l-235 606h-411l-106 -606h-123zM317 711l360 -1q73 0 140 22.5t119.5 64.5t87 102.5t43.5 136.5 q3 25 3 48q0 46 -12 84q-18 58 -57.5 98t-98 61t-130.5 23l-344 1z" />
<glyph unicode="S" horiz-adv-x="1187" d="M57 416h122q-2 -18 -1 -35q0 -61 19 -109q25 -62 74 -103.5t116 -62.5t144 -22h8q63 0 128 14q69 16 126.5 50t97 88t47.5 129q2 18 2 34q0 30 -7 56q-11 40 -34 71t-55.5 54.5t-71 42.5t-80 33.5t-81.5 27.5q-74 24 -149 56.5t-134 80t-93 113.5q-28 55 -28 128 q0 15 1 31q5 65 29 119.5t62.5 97.5t88.5 74.5t106 51.5q58 21 118 31q55 9 108 9h11q95 -2 176.5 -33.5t140 -88t88.5 -136.5q24 -63 24 -137q0 -20 -1 -40h-122q1 17 1 34q0 55 -15 101q-20 60 -61 103.5t-101.5 66.5t-134.5 25h-8q-62 -1 -124 -15q-66 -16 -122 -49.5 t-94.5 -86t-46.5 -125.5q-2 -16 -2 -30q1 -53 23 -91q28 -50 77 -84t109 -57t115 -40q79 -25 155.5 -59t135.5 -84q58 -48 92 -118q28 -57 27 -133q0 -16 -1 -32q-6 -68 -30.5 -123t-64 -98.5t-90.5 -75t-109 -52t-120 -30.5q-56 -9 -110 -8h-12q-98 1 -186.5 30t-154 83.5 t-101.5 135.5q-29 66 -28 149q0 19 1 38z" />
<glyph unicode="T" horiz-adv-x="1196" d="M179 1351l19 105h1089l-19 -105h-483l-235 -1351h-122l235 1351h-484z" />
<glyph unicode="U" horiz-adv-x="1316" d="M136 469l169 987h121l-168 -988q-4 -32 -4 -63q0 -46 9 -87q15 -69 54 -120t101 -81t146 -33h18q80 0 148 24q76 27 134 78t95 123t51 160l169 987h123l-169 -986q-17 -112 -66 -203.5t-124 -156t-173 -98.5q-93 -33 -200 -33h-12q-108 2 -192.5 38.5t-139.5 100.5 t-79 154q-16 58 -16 124q0 35 5 73z" />
<glyph unicode="V" horiz-adv-x="1235" d="M166 1456h123l247 -1276l2 -31l14 31l644 1276h138l-754 -1456h-117z" />
<glyph unicode="W" horiz-adv-x="1791" d="M193 1456h122l93 -1067l7 -215l87 213l472 1069h110l136 -1079l17 -206l82 226l420 1059h128l-590 -1456h-117l-143 1144l-11 134l-56 -139l-506 -1139h-117z" />
<glyph unicode="X" horiz-adv-x="1225" d="M-45 0l603 744l-354 712h138l300 -614l493 614h152l-584 -724l364 -732h-138l-311 634l-512 -634h-151z" />
<glyph unicode="Y" horiz-adv-x="1199" d="M174 1456h137l289 -792l568 792h148l-673 -914l-94 -542h-122l97 555z" />
<glyph unicode="Z" horiz-adv-x="1198" d="M-8 0l16 98l1030 1253h-810l17 105h963l-14 -93l-1035 -1259h869l-16 -104h-1020z" />
<glyph unicode="[" horiz-adv-x="486" d="M14 -312l309 1976h323l-16 -102h-204l-276 -1772h204l-17 -102h-323z" />
<glyph unicode="\" horiz-adv-x="793" d="M197 1456h110l316 -1581h-111z" />
<glyph unicode="]" horiz-adv-x="486" d="M-144 -312l17 102h204l277 1772h-205l16 102h324l-309 -1976h-324z" />
<glyph unicode="^" horiz-adv-x="836" d="M93 729l416 727h90l163 -727h-109l-121 565l-319 -565h-120z" />
<glyph unicode="_" horiz-adv-x="867" d="M-122 -101l18 101h858l-18 -101h-858z" />
<glyph unicode="`" horiz-adv-x="577" d="M247 1524h134l142 -279h-100z" />
<glyph unicode="a" horiz-adv-x="1074" d="M42 279q5 67 30.5 119t65.5 91t92 66t109.5 43.5t117 24t116.5 7.5l221 -1l18 124q2 18 2 35q0 38 -9 68q-13 46 -42.5 77.5t-74 49t-101.5 19.5h-7q-50 0 -98 -12q-52 -14 -94 -41.5t-73 -69t-43 -95.5h-117q11 79 54 139.5t105 100.5t136 60q71 19 142 19h7 q79 -2 144 -26.5t109.5 -70t65.5 -110.5q15 -46 15 -99q0 -23 -3 -47l-87 -524q-8 -53 -11 -107q-1 -12 -1 -23q0 -42 9 -84l-2 -12h-123q-4 27 -4 54q0 12 1 22q2 38 9 75q-75 -81 -171 -127q-92 -44 -200 -44h-9q-65 1 -121.5 22.5t-97.5 60.5t-63 93q-18 44 -18 98 q0 12 1 25zM164 289q-1 -13 -1 -25q-1 -32 9 -59q14 -37 41 -63.5t65.5 -41t82.5 -15.5h14q52 0 100 13q55 15 103 43t88.5 68t71.5 89l41 239l-191 1q-41 0 -87 -4.5t-91.5 -15.5t-87.5 -29t-75.5 -45.5t-55.5 -66t-27 -88.5z" />
<glyph unicode="b" d="M45 0l267 1536h118l-113 -611q65 87 153 133q82 44 185 44h13q73 -2 127.5 -26.5t92 -65t60.5 -94.5t34 -114q11 -58 12 -122v-16q0 -55 -6 -107l-2 -21q-9 -66 -26.5 -133t-46 -129.5t-68 -117t-90.5 -94.5t-115 -62q-58 -21 -127 -21h-12q-48 1 -93.5 11.5t-85.5 31.5 t-73.5 52t-57.5 74l-34 -148h-112zM215 287q29 -97 99.5 -149.5t171.5 -55.5h8q88 0 152 40q68 42 113.5 108t71 147.5t35.5 159.5l3 22q5 45 7 95v19q0 39 -5 78q-6 48 -21 92.5t-42.5 78.5t-68.5 54.5t-99 22.5h-7q-55 -1 -103 -15q-51 -16 -93.5 -45.5t-77.5 -71 t-62 -90.5z" />
<glyph unicode="c" horiz-adv-x="1033" d="M79 517l5 43q13 106 53.5 205t107.5 175t159 120q86 42 193 42h15q84 -2 150.5 -32t112.5 -81t69 -121q20 -60 19 -128v-24l-113 1v14q0 50 -13 95q-15 51 -46 89t-77.5 60.5t-107.5 24.5h-14q-85 0 -150 -34q-71 -38 -121 -101t-79.5 -143.5t-40.5 -161.5l-5 -42 q-6 -45 -6 -92v-8q0 -51 8.5 -99t26.5 -90.5t48.5 -75t74 -52t103.5 -21.5h12q54 0 103 16q54 18 97 50.5t74 80t47 106.5h113q-15 -81 -57 -147t-102.5 -112.5t-135.5 -71.5q-69 -23 -145 -23h-12q-113 3 -188 50.5t-118 123.5t-57 171q-8 53 -8 107q0 43 5 86z" />
<glyph unicode="d" horiz-adv-x="1114" d="M86 403v22q0 50 6 98l2 21q9 66 27.5 134t47 130.5t68.5 117t92 94.5t116 62q59 20 128 20h13q96 -2 175 -44.5t125 -128.5l110 607h118l-267 -1536h-111l27 144q-67 -81 -155 -124q-82 -40 -181 -40h-14q-71 2 -124.5 26.5t-91.5 66t-61.5 95t-35.5 113.5t-14 122z M208 381q2 -76 24.5 -141.5t72 -109.5t136.5 -47h12q104 0 183 51q84 54 142 144l87 510q-29 97 -95.5 152.5t-169.5 58.5h-12q-56 -1 -102 -17q-50 -18 -90.5 -51t-71 -77.5t-52 -95.5t-35.5 -106t-21 -107l-2 -21q-6 -54 -7 -113q1 -15 1 -30z" />
<glyph unicode="e" horiz-adv-x="1036" d="M74 507l5 44q12 102 54 202t110.5 178.5t160.5 126.5q87 45 193 44h13q104 -3 174.5 -46.5t111 -113t54.5 -157.5q8 -51 7 -102q0 -38 -4 -77l-8 -73h-749l-5 -24q-6 -36 -6 -73.5t6 -74.5q11 -75 45 -136t92.5 -100.5t142.5 -42.5h16q39 0 75 8q44 10 83 29t74.5 46.5 t68.5 60.5l70 -57q-74 -95 -175 -143q-97 -47 -212 -46h-9q-109 2 -187 48t-125.5 120t-65.5 168q-12 63 -13 127q0 32 3 64zM209 635l629 -1l2 15q4 30 4 60q0 32 -4 64q-10 62 -39 111.5t-78 81.5t-119 35h-14q-72 -1 -130 -29q-64 -32 -112.5 -84t-83 -118.5 t-55.5 -134.5z" />
<glyph unicode="f" horiz-adv-x="668" d="M126 984l18 98h173l19 134q10 75 38 139t74 109.5t109 71.5q61 24 137 24h6q33 -1 66 -6.5t65 -13.5l-21 -99q-26 7 -53 11t-54 4q-54 0 -96.5 -18.5t-73.5 -51t-50 -76t-27 -93.5l-20 -135h251l-18 -98h-249l-171 -984h-120l171 984h-174z" />
<glyph unicode="g" horiz-adv-x="1112" d="M18 -242l74 70q48 -72 114.5 -114.5t154.5 -44.5h12q73 0 131 23q64 26 111 72.5t77 110.5t42 138l26 126q-68 -78 -154 -120q-81 -39 -179 -39h-14q-72 2 -125.5 26.5t-91 65.5t-61 95t-35 113.5t-12.5 121.5q-1 12 -1 22q0 51 6 99l3 22q8 66 26.5 134t47 130.5t68 117 t91 94t115.5 61.5q59 21 129 21h12q97 -3 177 -46t126 -131l37 156h111l-182 -1063q-14 -98 -53.5 -181.5t-102 -144t-146.5 -94.5q-78 -31 -171 -31h-17q-53 1 -102.5 14.5t-94.5 37.5t-83 59t-66 79zM207 430v-15q0 -42 5 -83q6 -48 21 -92.5t42 -78.5t67.5 -55t98.5 -23 h14q48 0 91 12q48 14 90 40t77.5 63t64.5 83l85 505q-27 97 -93.5 153.5t-170.5 59.5h-12q-55 0 -101 -17q-51 -18 -91 -51t-70.5 -78t-52 -96t-35.5 -105.5t-21 -106.5l-3 -22q-5 -44 -6 -93z" />
<glyph unicode="h" horiz-adv-x="1100" d="M46 0l267 1536h118l-118 -637q34 45 74 83t86 65t98 41q49 14 103 14h7q88 -2 145.5 -34.5t89.5 -87t42 -126.5q5 -37 4 -75q0 -37 -4 -75l-118 -704h-118l118 706q3 33 3 64q1 24 -1 46q-4 52 -25.5 92.5t-62 64.5t-106.5 26h-6q-60 1 -110 -19q-54 -20 -98 -56 t-79.5 -83.5t-62.5 -98.5l-128 -742h-118z" />
<glyph unicode="i" horiz-adv-x="455" d="M59 0l189 1082h119l-188 -1082h-120zM281 1395q3 38 27.5 56.5t58.5 26.5q39 -7 55.5 -25t21.5 -58q-10 -38 -29 -55.5t-57 -25.5q-34 6 -56 24q-21 17 -21 51v6z" />
<glyph unicode="j" horiz-adv-x="463" d="M-276 -419l14 99q22 -6 43.5 -10.5t44.5 -4.5h6q44 0 78 15q37 15 63 43t41.5 66t22.5 82l207 1211h118l-206 -1211q-9 -68 -33 -125.5t-64 -99.5t-97 -65q-51 -21 -117 -21h-12q-29 1 -55.5 7t-53.5 14zM278 1395q2 33 25.5 57t58.5 25h3q33 0 54 -23q20 -22 20 -53v-6 q-3 -34 -27.5 -57t-58.5 -24h-3q-33 0 -54 22q-18 21 -18 51v8z" />
<glyph unicode="k" horiz-adv-x="983" d="M46 0l267 1536h119l-170 -974l124 114l471 406h159l-532 -461l373 -621h-132l-329 543l-160 -135l-71 -408h-119z" />
<glyph unicode="l" horiz-adv-x="455" d="M59 0l267 1536h120l-267 -1536h-120z" />
<glyph unicode="m" horiz-adv-x="1771" d="M40 0l188 1082h115l-34 -176q67 92 159 145q89 51 200 51h8q52 -1 99 -14t84.5 -38.5t63.5 -64.5t36 -93q35 48 77 87t90.5 67t103.5 42q51 14 108 14h8q89 -2 148.5 -34t93 -86t44.5 -126q6 -39 6 -81q0 -34 -4 -70l-119 -705h-119l118 707q3 31 3 60q-1 27 -3 52 q-6 53 -28 92.5t-64 63t-109 24.5h-6q-59 -1 -114 -21q-58 -22 -105.5 -59.5t-81 -89.5t-46.5 -113l-124 -716h-119l120 716q3 28 3 54q0 28 -4 55q-6 51 -29.5 89.5t-66 60.5t-106.5 24h-6q-54 0 -106 -18q-55 -19 -101.5 -53.5t-81.5 -82t-52 -102.5l-128 -743h-119z" />
<glyph unicode="n" horiz-adv-x="1101" d="M46 0l188 1082h114l-36 -185q33 46 73 84t86.5 65.5t98.5 41.5q49 14 104 14h7q88 -2 145.5 -34.5t89.5 -87t42 -126.5q5 -37 4 -75q0 -37 -4 -75l-118 -704h-118l118 706q3 33 3 64q1 24 -1 46q-4 52 -25.5 92.5t-62 64.5t-106.5 26h-6q-60 1 -110 -19q-54 -20 -98 -56 t-79.5 -83.5t-62.5 -98.5l-128 -742h-118z" />
<glyph unicode="o" horiz-adv-x="1123" d="M74 386q-2 29 -3 57q0 37 4 74l4 33q13 108 57 209t114.5 178t166.5 123q90 43 199 42h14q112 -3 190.5 -50.5t126 -123.5t63.5 -172q10 -60 11 -121q0 -37 -4 -75l-4 -34q-14 -108 -58 -207.5t-114.5 -176t-166.5 -120.5q-89 -42 -197 -42h-15q-74 2 -133.5 24 t-105 59.5t-77 88t-49 110t-23.5 124.5zM194 516q-4 -35 -4 -70q0 -40 5 -80q9 -76 40.5 -139t88.5 -103.5t145 -43.5h13q86 0 154 36q74 39 127.5 102.5t87 144.5t44.5 164l4 32q4 37 4.5 75t-4.5 76q-9 77 -41 141t-89.5 105.5t-145.5 44.5h-13q-85 -1 -154 -37 q-74 -40 -127.5 -104t-86.5 -146t-44 -164z" />
<glyph unicode="p" d="M-27 -416l260 1498h110l-28 -153q67 85 155 131q84 42 185 42h13q73 -2 127 -26.5t92 -65t60.5 -94t33.5 -113.5t12 -123v-16q0 -54 -6 -106l-3 -21q-9 -66 -26.5 -133.5t-46 -130t-67.5 -117t-90 -94.5t-114 -62q-58 -21 -128 -21h-12q-93 2 -175.5 39.5t-133.5 117.5 l-100 -552h-118zM211 271q32 -92 101.5 -140t166.5 -51h12q55 0 101 16q51 19 91.5 52.5t71.5 78.5t53 96.5t36 106t21 107.5l3 21q5 45 6 94v14q0 42 -6 84q-6 49 -21.5 93t-43 78t-69 55t-99.5 23h-7q-53 0 -99 -13q-49 -15 -91 -42.5t-76.5 -66t-61.5 -85.5z" />
<glyph unicode="q" horiz-adv-x="1118" d="M88 402q-1 11 -1 22q0 50 6 99l2 22q9 67 27 135t47 130.5t69 116.5t91.5 93.5t115.5 61.5q59 20 129 20h13q95 -2 174 -42.5t127 -124.5l35 147h112l-260 -1498h-119l102 550q-67 -77 -154 -117q-80 -37 -175 -37h-14q-72 2 -126 26.5t-92 65.5t-61.5 94.5t-35 113.5 t-12.5 122zM207 430v-14q0 -43 5 -84q6 -49 21 -94t42 -79.5t68 -55.5t99 -23h14q46 0 88 11q48 13 89.5 38t77 60t64.5 78l91 532q-31 92 -97.5 145t-166.5 56h-12q-55 0 -101 -16q-51 -19 -91.5 -52t-71 -78t-53 -96.5t-36.5 -106t-21 -106.5l-2 -21q-6 -44 -7 -94z" />
<glyph unicode="r" horiz-adv-x="678" d="M46 0l188 1082h117l-36 -172q27 44 61.5 80.5t75 62t88.5 39.5q44 13 94 12h7q21 0 41.5 -4t40.5 -10l-16 -109q-39 8 -79 9q-56 0 -109.5 -18t-98.5 -50.5t-78.5 -78t-49.5 -99.5l-128 -744h-118z" />
<glyph unicode="s" horiz-adv-x="1016" d="M51 304l119 -1q0 -57 20.5 -98.5t55.5 -68.5t82.5 -40.5t100.5 -14.5q47 0 97.5 11t93 35t72.5 62.5t37 92.5q1 12 1 23q0 38 -16 67q-20 37 -55.5 62.5t-80.5 41.5t-87 27q-59 15 -119 36t-108 55t-76 84q-24 42 -24 101q0 10 1 21q4 76 42 133.5t95.5 95t127.5 55.5 q66 18 132 18h7q73 -1 138.5 -22.5t114 -62t74.5 -100.5q23 -52 23 -118v-20h-118v15q0 44 -15 79q-18 41 -51 69t-77.5 42.5t-93.5 15.5q-47 0 -94 -11t-86.5 -35t-66.5 -61t-33 -88q-1 -12 -2 -23q0 -38 17 -64q21 -34 57.5 -56.5t81 -36t85.5 -24.5q61 -17 121 -40 t107 -59t74 -88q23 -44 22 -103v-23q-5 -81 -44.5 -139.5t-99.5 -96.5q-59 -38 -133 -56q-70 -17 -138 -16h-8q-72 1 -141 21.5t-122 60.5t-84 100q-27 52 -27 120q0 11 1 22z" />
<glyph unicode="t" horiz-adv-x="648" d="M87 984l18 98h192l49 277h119l-48 -277h217l-17 -98h-217l-120 -722q-3 -31 -2.5 -62t10.5 -55.5t31 -40t59 -16.5q25 -1 49 1.5t48 5.5l-5 -98q-53 -15 -107 -15h-13q-62 1 -101 24.5t-60 62.5t-27 89q-3 26 -2 54q0 25 2 51l119 721h-194z" />
<glyph unicode="u" horiz-adv-x="1101" d="M114 389l116 693h118l-115 -696q-3 -31 -3 -62q0 -24 2 -46q4 -54 24 -96t59.5 -69t103.5 -29h15q46 0 94 10q56 12 104.5 39.5t86 68.5t54.5 96l134 784h120l-188 -1082h-116l29 136q-67 -84 -158 -122q-84 -35 -182 -34h-16q-89 2 -147.5 36.5t-91.5 90.5t-43 129 q-5 37 -4 77q0 37 4 76z" />
<glyph unicode="v" horiz-adv-x="965" d="M113 1082h118l177 -913l462 913h126l-561 -1082h-97z" />
<glyph unicode="w" horiz-adv-x="1508" d="M147 1082l112 1l83 -834v-85l39 93l395 825h102l107 -827l6 -102l41 103l358 826h127l-494 -1082h-102l-119 858l-1 60l-23 -61l-414 -857h-102z" />
<glyph unicode="x" horiz-adv-x="976" d="M-52 0l462 557l-271 525h132l213 -437l351 437h148l-444 -537l283 -545h-132l-226 456l-370 -456h-146z" />
<glyph unicode="y" horiz-adv-x="954" d="M-88 -424l12 98q15 -2 30 -4.5t30 -2.5h12q43 0 78 13q40 15 72.5 42t57.5 64t45 79l76 151l-209 1066h125l167 -906l463 906h133l-660 -1256q-26 -52 -57.5 -100.5t-72 -85.5t-91.5 -59q-49 -21 -109 -21h-6q-24 1 -48 5.5t-48 10.5z" />
<glyph unicode="z" horiz-adv-x="976" d="M-11 0l15 93l771 886h-614l17 103h766l-15 -94l-774 -887h679l-16 -101h-829z" />
<glyph unicode="{" horiz-adv-x="666" d="M58 542l12 103q122 5 187 73t82 186l31 228q49 361 400 467l18 -80q-68 -23 -119 -60.5t-87.5 -87t-59 -110t-32.5 -129.5l-32 -228q-15 -111 -70.5 -189.5t-159.5 -123.5q42 -23 69 -57t41.5 -74.5t18 -85.5t-0.5 -90l-31 -227q-8 -62 -3.5 -120t24.5 -107.5t59 -89 t101 -63.5l-30 -79q-79 27 -134.5 72t-88.5 104.5t-44.5 131t-2.5 152.5l31 227q6 53 0 98.5t-26.5 79.5t-58 54.5t-94.5 24.5z" />
<glyph unicode="|" horiz-adv-x="448" d="M35 -270l270 1726h101l-270 -1726h-101z" />
<glyph unicode="}" horiz-adv-x="666" d="M-136 -325q134 46 207 145.5t93 237.5l31 226q15 114 73 192.5t166 121.5q-45 21 -73.5 54.5t-44 74t-19.5 86t1 91.5l30 229q7 61 4 119.5t-22 109.5t-57 91.5t-100 64.5l32 77q79 -28 133 -73.5t86 -105.5t42 -132t1 -152l-30 -229q-6 -53 0 -98t26.5 -78.5t57.5 -54 t94 -23.5l-11 -104q-122 -5 -187.5 -74t-82.5 -187l-30 -226q-49 -359 -400 -464z" />
<glyph unicode="~" horiz-adv-x="1370" d="M118 449q8 67 32 129t65 109t98 75t131 27q42 -1 80 -13t72 -32t65 -46t60 -55q21 -21 43 -41.5t46 -36.5t51 -26t59 -11q51 -1 89 19t65 53t43 75.5t24 87.5l99 1q-8 -66 -32.5 -128.5t-65 -110.5t-98 -76.5t-130.5 -26.5q-43 1 -80 13t-71 31.5t-64.5 45.5t-59.5 55 q-21 21 -43 41.5t-46.5 36.5t-52 26t-58.5 10q-52 1 -89.5 -18t-63 -51.5t-41 -74t-23.5 -86.5z" />
<glyph unicode="&#xa1;" horiz-adv-x="448" d="M-5 -359l188 1049h111l-176 -1049h-123zM208 1022q3 34 27.5 57t58.5 24q35 1 57 -22.5t19 -58.5q-2 -33 -26.5 -56.5t-58.5 -24.5q-35 -1 -57 22.5t-20 58.5z" />
<glyph unicode="&#xa2;" horiz-adv-x="1092" d="M103 517l5 43q12 100 49 194.5t97.5 169t144 122t188.5 55.5l38 217h120l-40 -224q68 -13 122 -46t90.5 -82.5t54.5 -113t15 -136.5l-113 1q2 58 -13 109t-46 89t-77.5 60.5t-107.5 24.5q-93 3 -164 -34.5t-121 -100.5t-79.5 -143.5t-40.5 -161.5l-5 -42 q-6 -49 -5.5 -100t8.5 -99t26 -90.5t48.5 -75t74 -52t103.5 -21.5q61 -2 115 15.5t97 50.5t74 80.5t47 106.5h113q-14 -75 -51.5 -138t-92 -109t-122.5 -73.5t-143 -32.5l-39 -225h-120l41 232q-91 18 -151.5 69.5t-94.5 124t-44.5 160t-0.5 176.5z" />
<glyph unicode="&#xa3;" horiz-adv-x="1145" d="M-11 0l18 103l92 -1q38 14 63 44t41.5 67t25 77.5t13.5 76.5l37 278h-182l18 104h179l38 290q12 91 48.5 172t95.5 141t138.5 93.5t176.5 31.5q85 -2 150 -32.5t107 -82t60.5 -122t10.5 -152.5h-122q6 58 -4.5 109t-37.5 89.5t-71.5 61t-107.5 24.5q-72 2 -127.5 -25.5 t-96 -74.5t-64.5 -108t-33 -125l-39 -290h334l-18 -104h-331l-38 -275q-11 -75 -35.5 -143t-75.5 -125l725 2l-18 -104h-970z" />
<glyph unicode="&#xa4;" horiz-adv-x="1447" d="M12 66l183 156q-41 91 -54 186t0 193q16 118 66.5 220t130.5 189l-133 173l93 82l131 -169q86 64 183.5 102t206.5 36q97 -2 186.5 -37.5t158.5 -104.5l197 173l74 -94l-197 -170q42 -91 57 -189t1 -198q-14 -112 -62 -210t-123 -182l130 -168l-94 -82l-124 159 q-87 -70 -188 -111.5t-215 -39.5q-101 2 -193.5 40t-161.5 112l-180 -158zM252 599q-12 -92 7.5 -182t67.5 -162t123.5 -117.5t176.5 -48.5q108 -3 203.5 41t170 118t122.5 170t62 198q12 92 -7.5 181.5t-67.5 161t-123.5 116.5t-175.5 48q-72 2 -139 -17t-126 -54.5 t-109 -85.5t-88 -108.5t-63 -124.5t-34 -134z" />
<glyph unicode="&#xa5;" horiz-adv-x="1196" d="M77 324l16 88h401l36 204h-403l16 89h359l-308 751h133l282 -720l532 720h149l-570 -751h353l-16 -89h-405l-36 -204h406l-16 -88h-405l-57 -324h-122l57 324h-402z" />
<glyph unicode="&#xa6;" horiz-adv-x="441" d="M2 -270l134 771h120l-135 -771h-119zM170 698l132 758h119l-132 -758h-119z" />
<glyph unicode="&#xa7;" horiz-adv-x="1212" d="M-15 -64l119 2q-8 -77 11.5 -138t60.5 -103.5t102 -65.5t137 -24q63 -2 127 12.5t117 46t90 81t46 119.5q5 45 -5 80t-31.5 62.5t-51.5 48.5t-65.5 37t-73 28.5t-72.5 23.5q-75 23 -150 53t-133.5 75t-91.5 110t-25 159q5 57 27.5 102.5t58 80.5t81.5 60t97 43 q-72 52 -101.5 123.5t-21.5 159.5q8 96 56 166t119.5 114.5t159 65t173.5 18.5q99 -2 176.5 -32.5t129.5 -86t76 -134.5t14 -178h-118q7 71 -9 130.5t-52.5 103t-92.5 68.5t-129 27q-64 1 -128.5 -12.5t-118 -44.5t-90 -81t-45.5 -121q-9 -70 16 -117t70 -79t102.5 -52.5 t113.5 -38.5q49 -16 99.5 -33.5t96.5 -40t85 -51.5t67 -66.5t41.5 -86.5t8.5 -111q-5 -59 -29 -104t-61 -79.5t-84.5 -59t-98.5 -41.5q75 -51 107 -123t24 -163q-8 -98 -55 -167.5t-118.5 -113.5t-158.5 -64.5t-174 -18.5q-99 1 -181.5 30t-139.5 83.5t-85 134t-19 183.5z M216 546q-7 -49 4.5 -87t35 -66.5t57.5 -50t72.5 -37.5t79.5 -29t79 -25l58 -18t58 -20q48 7 94.5 22.5t85 42.5t64.5 65.5t33 91.5q6 47 -6 84t-36.5 66t-59 51t-73.5 39t-79 30t-76 24q-33 11 -66 21t-66 22q-48 -8 -92 -24.5t-79 -43.5t-58 -66.5t-30 -91.5z" />
<glyph unicode="&#xa8;" horiz-adv-x="865" d="M262 1396q2 34 26 57.5t59 24.5q35 0 57.5 -23.5t19.5 -58.5q-2 -33 -27 -56t-58 -24q-35 0 -57 22.5t-20 57.5zM686 1395q1 16 8 31t18.5 26t26.5 18t32 7q35 1 57 -23t20 -59q-2 -34 -27 -56.5t-58 -23.5q-34 0 -56.5 22.5t-20.5 57.5z" />
<glyph unicode="&#xa9;" horiz-adv-x="1598" d="M123 722q11 99 46 194t89 179.5t125.5 155t156 121.5t181 78.5t200.5 25.5q99 -1 184 -31t153 -81t118.5 -121t81.5 -152t42.5 -172.5t0.5 -183.5q-12 -99 -46.5 -194t-88.5 -179.5t-125 -155.5t-155.5 -122t-181 -79t-200.5 -26q-100 2 -184.5 31.5t-153 81t-119 122 t-81.5 152.5t-42.5 172.5t-0.5 183.5zM206.5 562q8.5 -80 34.5 -152.5t68.5 -134.5t101.5 -108.5t132.5 -73.5t161.5 -28q92 -2 177.5 23t160.5 70.5t138.5 108.5t112 138.5t80 159.5t42.5 171q10 80 1.5 159.5t-34.5 151.5t-69 133.5t-101.5 107.5t-132 72.5t-160.5 28.5 q-92 2 -177 -22.5t-160.5 -69.5t-139 -108t-112 -137.5t-80 -158.5t-42.5 -171q-11 -80 -2.5 -160zM473 680l10 96q9 75 37 146t75 125t112.5 86t148.5 31q71 -2 124 -25.5t87 -65t48.5 -98.5t9.5 -125h-98q4 48 -3 89t-28 71t-56.5 47t-87.5 18q-63 1 -110 -25t-80 -68.5 t-52.5 -96t-26.5 -108.5l-10 -98q-5 -49 0.5 -100.5t26 -94.5t57.5 -71.5t97 -30.5q55 -2 96 14t70 46t47 72t27 92l95 1q-9 -71 -35 -130t-68.5 -100.5t-101.5 -64t-134 -20.5q-80 2 -135.5 36.5t-88.5 89t-46 123t-7 139.5z" />
<glyph unicode="&#xaa;" horiz-adv-x="889" d="M206 900q3 70 36 116.5t83 74t111.5 39t120.5 11.5l137 -1l9 62q4 35 0 67t-18 56t-40 39t-65 16q-76 2 -131.5 -32t-74.5 -110l-104 6q8 59 37 103.5t72 73.5t96.5 43t110.5 13q61 -2 106 -23.5t73.5 -58.5t40.5 -87t7 -108l-49 -314q-15 -93 -5 -182l-105 -1 q-6 48 -3 95q-45 -49 -101.5 -78.5t-125.5 -29.5q-48 0 -89 14t-70.5 41t-45.5 66t-13 89zM316 905q-3 -32 6 -55t27 -37.5t43.5 -21.5t54.5 -7q61 0 114.5 30.5t93.5 74.5l30 169l-126 1q-39 0 -80 -7t-75.5 -24.5t-58.5 -47t-29 -75.5z" />
<glyph unicode="&#xab;" horiz-adv-x="915" d="M106 526l2 19l348 380h114l-342 -395l198 -382h-95zM406 526l2 19l348 380h114l-342 -395l198 -382h-95z" />
<glyph unicode="&#xac;" horiz-adv-x="1093" d="M131 670l19 106h790l-68 -390h-119l50 284h-672z" />
<glyph unicode="&#xad;" horiz-adv-x="578" d="M45 592l18 101h467l-18 -101h-467z" />
<glyph unicode="&#xae;" horiz-adv-x="1603" d="M118 722q12 99 46.5 194.5t88.5 179.5t125.5 154.5t156 121.5t181 78.5t200.5 25.5q99 -1 184 -31t153.5 -81t119 -121t82 -152t43 -172.5t0.5 -183.5q-12 -99 -46.5 -194t-88.5 -180t-125.5 -155.5t-156.5 -121.5t-181.5 -79t-200.5 -26q-100 2 -184.5 31.5t-153 81 t-119 122t-81.5 152.5t-42.5 172.5t-0.5 183.5zM201.5 562q8.5 -80 34.5 -152.5t69 -134.5t101.5 -108.5t132 -73.5t161.5 -28q92 -2 177.5 22.5t160.5 70t138.5 109t112 138.5t80 159.5t42.5 171.5q10 80 2 159.5t-34 151.5t-69 134t-102 107.5t-132.5 72t-160.5 28.5 q-92 2 -177 -22.5t-160.5 -69.5t-139 -108t-112 -137.5t-80.5 -158.5t-43 -171q-10 -80 -1.5 -160zM490 321l132 839l244 -1q56 -2 106 -16t86.5 -43t55.5 -73.5t15 -107.5q-3 -39 -16.5 -70t-36 -56t-51.5 -45.5t-62 -36.5q30 -15 49.5 -36.5t29.5 -47.5t12.5 -56.5 t-0.5 -61.5l-6 -45q-4 -33 -3 -64t2 -63l-2 -16h-98q-5 36 -3.5 72t6.5 72l5 44q7 75 -20.5 113.5t-104.5 42.5l-187 1l-55 -345h-98zM656 757l171 -1q37 1 72.5 11.5t64 30t47.5 49.5t24 70q6 45 -5 74t-34.5 46t-57 24t-72.5 8l-160 1z" />
<glyph unicode="&#xaf;" horiz-adv-x="858" d="M220 1359l16 97h652l-15 -97h-653z" />
<glyph unicode="&#xb0;" horiz-adv-x="761" d="M247 1217q2 51 23.5 98.5t57 83.5t82 57.5t99.5 20.5q48 -1 88 -21.5t68 -54t42.5 -77t12.5 -89.5q-2 -51 -23 -98t-55.5 -82t-81 -56t-98.5 -20q-48 1 -88.5 20.5t-69 52.5t-44 75.5t-13.5 89.5zM337 1219q-3 -30 5 -57t25 -47.5t41.5 -32.5t55.5 -12q34 0 63.5 13 t51.5 35.5t35.5 52t16.5 62.5q3 30 -4.5 57.5t-23.5 49t-40.5 34t-56.5 12.5q-34 0 -64 -14t-52.5 -37t-36 -53t-16.5 -63z" />
<glyph unicode="&#xb1;" horiz-adv-x="1063" d="M30 -1l19 102h813l-19 -102h-813zM101 728l16 101h401l69 438h110l-69 -438h381l-17 -101h-379l-70 -439h-109l69 439h-402z" />
<glyph unicode="&#xb2;" horiz-adv-x="728" d="M103 665l14 80l323 279q24 21 51.5 45.5t52 52.5t42.5 59.5t22 65.5q8 64 -28.5 98.5t-98.5 34.5q-81 1 -131 -43.5t-67 -120.5h-103q8 58 34 105t66 79.5t91.5 50t110.5 16.5q49 -1 93.5 -15t77 -41.5t50 -68t13.5 -94.5q-3 -47 -25.5 -89t-54 -79t-69 -69.5 t-70.5 -60.5l-242 -198h420l-16 -87h-556z" />
<glyph unicode="&#xb3;" horiz-adv-x="728" d="M120 885h103q-2 -36 10.5 -62.5t34 -44.5t51.5 -27t64 -9q35 0 68.5 8.5t60.5 27t45 46.5t22 66q4 39 -9 65t-36.5 41t-55 21t-64.5 7l-80 1l9 81h76q33 1 67.5 9t63 25t48 43.5t23.5 64.5q3 33 -6.5 57.5t-28.5 40.5t-46 24.5t-57 8.5q-67 1 -117.5 -33t-68.5 -99 l-104 -1q8 55 34.5 96.5t66 69.5t88.5 42t102 13q49 -1 94 -14.5t79.5 -40t53.5 -67t15 -94.5q-2 -36 -17.5 -65t-38.5 -51.5t-52.5 -39.5t-60.5 -30q62 -21 95 -65.5t30 -111.5q-3 -60 -30.5 -104.5t-70.5 -73.5t-96 -43t-107 -13q-53 1 -101 16t-83.5 43.5t-55.5 71.5 t-18 100z" />
<glyph unicode="&#xb4;" horiz-adv-x="569" d="M216 1245l230 279l150 -1l-268 -277z" />
<glyph unicode="&#xb5;" horiz-adv-x="1116" d="M-20 -416l260 1498h118l-105 -634q-4 -39 -6 -80.5t2.5 -82t15.5 -77t33.5 -64.5t56.5 -45t84 -19q57 -2 112 12t101.5 43t81 73.5t50.5 102.5l132 771h119l-188 -1082h-102l24 157q-59 -87 -140.5 -133.5t-187.5 -44.5q-76 2 -142 30.5t-107 96.5l-94 -522h-118z" />
<glyph unicode="&#xb6;" horiz-adv-x="954" d="M148 980q12 111 58.5 199t120 150t168.5 95t204 33l228 -1l-253 -1456h-119l91 520l-94 1q-102 2 -182 36t-133 94.5t-76.5 144t-12.5 184.5z" />
<glyph unicode="&#xb7;" horiz-adv-x="498" d="M178 717q2 35 27 59t60 25q18 0 33 -6t26 -17.5t16.5 -27t4.5 -33.5q-3 -35 -28.5 -58.5t-60.5 -24.5q-36 -1 -58.5 23t-19.5 60z" />
<glyph unicode="&#xb8;" horiz-adv-x="493" d="M-75 -437l1 79q31 1 67.5 7t68.5 20t55 38t28 62q4 34 -9.5 53t-36.5 29.5t-51 15t-52 7.5l45 126h90l-22 -66q66 -12 102 -52.5t33 -109.5q-3 -62 -34.5 -102t-78 -63t-101.5 -33t-105 -11z" />
<glyph unicode="&#xb9;" horiz-adv-x="664" d="M235 1260l17 94l328 105h17l-134 -790h-105l115 660z" />
<glyph unicode="&#xba;" horiz-adv-x="904" d="M207 1033l10 98q8 72 37 136t75.5 111t109.5 74t140 25q73 -2 126.5 -31t87.5 -76.5t48 -109t8 -128.5l-10 -99q-9 -72 -37.5 -135t-74.5 -110.5t-109 -74t-139 -24.5q-73 2 -126.5 30.5t-87.5 75.5t-48.5 108.5t-9.5 129.5zM317 1031q-5 -46 1 -89.5t25.5 -78t54 -56.5 t87.5 -23q55 -2 97.5 18.5t73 55t49 80t25.5 95.5l12 100q4 45 -2.5 89t-26 78.5t-54 56.5t-86.5 24q-54 1 -97 -19t-73.5 -54.5t-49.5 -80.5t-25 -95z" />
<glyph unicode="&#xbb;" horiz-adv-x="910" d="M30 162l341 394l-197 388h96l224 -382l-2 -20l-348 -380h-114zM340 162l341 394l-197 388h96l224 -382l-2 -20l-348 -380h-114z" />
<glyph unicode="&#xbc;" horiz-adv-x="1449" d="M222 1255l17 94l328 105h17l-134 -790h-105l115 660zM255 183l885 1131l68 -49l-881 -1135zM675 187l4 65l475 537h115l-90 -514h124l-16 -88h-123l-33 -187h-105l34 187h-385zM801 275h273l73 385l-39 -51z" />
<glyph unicode="&#xbd;" horiz-adv-x="1512" d="M208 1255l17 94l328 105h17l-134 -790h-105l115 660zM212 183l885 1131l68 -49l-881 -1135zM734 0l14 80l323 279q24 21 51.5 45.5t52 52.5t42.5 59.5t22 65.5q8 64 -28.5 98.5t-98.5 34.5q-81 1 -131 -43.5t-67 -120.5h-103q8 58 34 105t66 79.5t91.5 50t110.5 16.5 q49 -1 93.5 -15t77 -41.5t50 -68t13.5 -94.5q-3 -47 -25.5 -89t-54 -79t-69 -69.5t-70.5 -60.5l-242 -198h420l-16 -87h-556z" />
<glyph unicode="&#xbe;" horiz-adv-x="1552" d="M165 885h103q-2 -36 10.5 -62.5t34 -44.5t51.5 -27t64 -9q35 0 68.5 8.5t60.5 27t45 46.5t22 66q4 39 -9 65t-36.5 41t-55 21t-64.5 7l-80 1l9 81h76q33 1 67.5 9t63 25t48 43.5t23.5 64.5q3 33 -6.5 57.5t-28.5 40.5t-46 24.5t-57 8.5q-67 1 -117.5 -33t-68.5 -99 l-104 -1q8 55 34.5 96.5t66 69.5t88.5 42t102 13q49 -1 94 -14.5t79.5 -40t53.5 -67t15 -94.5q-2 -36 -17.5 -65t-38.5 -51.5t-52.5 -39.5t-60.5 -30q62 -21 95 -65.5t30 -111.5q-3 -60 -30.5 -104.5t-70.5 -73.5t-96 -43t-107 -13q-53 1 -101 16t-83.5 43.5t-55.5 71.5 t-18 100zM395 183l885 1131l68 -49l-881 -1135zM786 187l4 65l475 537h115l-90 -514h124l-16 -88h-123l-33 -187h-105l34 187h-385zM912 275h273l73 385l-39 -51z" />
<glyph unicode="&#xbf;" horiz-adv-x="922" d="M-19 -18q7 74 36 138t72 119.5t96 104.5t108 94q32 26 55 53t39 57t26.5 64.5t17.5 74.5l115 1q-8 -57 -22.5 -102.5t-38 -85.5t-55.5 -76t-75 -73q-45 -39 -87.5 -78t-77 -82.5t-58.5 -94t-31 -113.5q-6 -55 3.5 -102.5t35 -82.5t67 -55.5t100.5 -21.5q61 -2 110 17 t86.5 53.5t62 82.5t36.5 105l117 1q-12 -83 -47 -151t-89.5 -116t-126.5 -73.5t-157 -23.5q-81 2 -143.5 29.5t-103.5 76t-60 114.5t-11 146zM462 1022q3 33 28 56t58 24q34 1 56.5 -22t19.5 -58q-1 -17 -8 -31.5t-18.5 -25.5t-26.5 -18t-32 -7q-35 -1 -57 23t-20 59z" />
<glyph unicode="&#xc0;" horiz-adv-x="1251" d="M-79 0l787 1456h117l281 -1456h-121l-76 408h-638l-217 -408h-133zM326 513h563l-144 789zM583 1839h134l142 -279h-100z" />
<glyph unicode="&#xc1;" horiz-adv-x="1251" d="M-79 0l787 1456h117l281 -1456h-121l-76 408h-638l-217 -408h-133zM326 513h563l-144 789zM716 1560l230 279l150 -1l-268 -277z" />
<glyph unicode="&#xc2;" horiz-adv-x="1251" d="M-79 0l787 1456h117l281 -1456h-121l-76 408h-638l-217 -408h-133zM326 513h563l-144 789zM525 1573l1 14l270 254h73l198 -257l-1 -12l-108 1l-129 181l-194 -180z" />
<glyph unicode="&#xc3;" horiz-adv-x="1251" d="M-79 0l787 1456h117l281 -1456h-121l-76 408h-638l-217 -408h-133zM326 513h563l-144 789zM471 1592q6 42 22.5 81t43 68.5t63 47t83.5 16.5q39 0 71 -18t62 -39t61.5 -38.5t69.5 -17.5q27 0 48 10.5t36.5 27.5t26 38.5t17.5 45.5l84 -5q-6 -42 -21.5 -81t-42 -69 t-63 -47.5t-83.5 -17.5q-40 0 -72 18t-61.5 39t-60 38.5t-68.5 17.5q-27 0 -48 -10t-36.5 -26t-26 -37t-16.5 -45z" />
<glyph unicode="&#xc4;" horiz-adv-x="1251" d="M-79 0l787 1456h117l281 -1456h-121l-76 408h-638l-217 -408h-133zM326 513h563l-144 789zM528 1711q2 34 26 57.5t59 24.5q35 0 57.5 -23.5t19.5 -58.5q-2 -33 -27 -56t-58 -24q-35 0 -57 22.5t-20 57.5zM952 1710q1 16 8 31t18.5 26t26.5 18t32 7q35 1 57 -23t20 -59 q-2 -34 -27 -56.5t-58 -23.5q-34 0 -56.5 22.5t-20.5 57.5z" />
<glyph unicode="&#xc5;" horiz-adv-x="1251" d="M-79 0l787 1456h117l281 -1456h-121l-76 408h-638l-217 -408h-133zM326 513h563l-144 789zM630 1707q1 40 17 76.5t43 63.5t63 43t77 16q38 0 70.5 -14.5t56.5 -39.5t37 -58.5t12 -70.5q-1 -41 -17.5 -76.5t-43.5 -62t-63 -42t-77 -15.5q-38 0 -70.5 14t-56 38t-36.5 57 t-12 71zM707 1709q-2 -22 3.5 -42t18 -35.5t31 -24t41.5 -8.5q25 0 47.5 10t39.5 26.5t28 39t14 46.5q2 22 -3.5 42.5t-18.5 36.5t-31.5 25t-42.5 9q-25 0 -47 -10.5t-39 -27.5t-28 -40t-13 -47z" />
<glyph unicode="&#xc6;" horiz-adv-x="1819" d="M-93 0l1108 1456h844l-18 -102h-673l-72 -545h572l-18 -102h-568l-80 -606h682l-18 -101h-795l51 389h-572l-291 -389h-152zM434 502h504l109 818z" />
<glyph unicode="&#xc7;" horiz-adv-x="1300" d="M127 481q-3 78 7 155l28 183q13 84 40 166t67.5 156t94.5 136t121.5 107t148 69.5t174.5 22.5q108 -2 190.5 -37.5t138 -98.5t84 -149.5t27.5 -191.5l-121 1q0 80 -19 147.5t-58.5 116.5t-101 77.5t-146.5 30.5q-116 3 -205 -44.5t-153 -126.5t-103 -178.5t-55 -201.5 l-29 -186q-8 -59 -8.5 -122t10 -123.5t32.5 -115t59.5 -96t91 -67t126.5 -27.5q94 -3 169 22t132 73.5t97 118t65 155.5l119 1q-25 -110 -76.5 -198.5t-126.5 -151t-172.5 -95t-212.5 -29.5q-89 2 -158.5 30t-120.5 75.5t-84.5 110.5t-51 135t-20.5 150zM391 -446l1 79 q31 1 67.5 7t68.5 20t55 38t28 62q4 34 -9.5 53t-36.5 29.5t-51 15t-52 7.5l45 126h90l-22 -66q66 -12 102 -52.5t33 -109.5q-3 -62 -34.5 -102t-78 -63t-101.5 -33t-105 -11z" />
<glyph unicode="&#xc8;" horiz-adv-x="1140" d="M73 0l253 1456h877l-19 -105h-754l-96 -549h661l-18 -104h-660l-104 -594h760l-18 -104h-882zM561 1845h134l142 -279h-100z" />
<glyph unicode="&#xc9;" horiz-adv-x="1140" d="M73 0l253 1456h877l-19 -105h-754l-96 -549h661l-18 -104h-660l-104 -594h760l-18 -104h-882zM694 1566l230 279l150 -1l-268 -277z" />
<glyph unicode="&#xca;" horiz-adv-x="1140" d="M73 0l253 1456h877l-19 -105h-754l-96 -549h661l-18 -104h-660l-104 -594h760l-18 -104h-882zM503 1579l1 14l270 254h73l198 -257l-1 -12l-108 1l-129 181l-194 -180z" />
<glyph unicode="&#xcb;" horiz-adv-x="1140" d="M73 0l253 1456h877l-19 -105h-754l-96 -549h661l-18 -104h-660l-104 -594h760l-18 -104h-882zM506 1717q2 34 26 57.5t59 24.5q35 0 57.5 -23.5t19.5 -58.5q-2 -33 -27 -56t-58 -24q-35 0 -57 22.5t-20 57.5zM930 1716q1 16 8 31t18.5 26t26.5 18t32 7q35 1 57 -23 t20 -59q-2 -34 -27 -56.5t-58 -23.5q-34 0 -56.5 22.5t-20.5 57.5z" />
<glyph unicode="&#xcc;" horiz-adv-x="539" d="M99 0l253 1456h122l-253 -1456h-122zM227 1845h134l142 -279h-100z" />
<glyph unicode="&#xcd;" horiz-adv-x="539" d="M99 0l253 1456h122l-253 -1456h-122zM359 1566l230 279l150 -1l-268 -277z" />
<glyph unicode="&#xce;" horiz-adv-x="539" d="M99 0l253 1456h122l-253 -1456h-122zM169 1579l1 14l270 254h73l198 -257l-1 -12l-108 1l-129 181l-194 -180z" />
<glyph unicode="&#xcf;" horiz-adv-x="539" d="M99 0l253 1456h122l-253 -1456h-122zM172 1717q2 34 26 57.5t59 24.5q35 0 57.5 -23.5t19.5 -58.5q-2 -33 -27 -56t-58 -24q-35 0 -57 22.5t-20 57.5zM596 1716q1 16 8 31t18.5 26t26.5 18t32 7q35 1 57 -23t20 -59q-2 -34 -27 -56.5t-58 -23.5q-34 0 -56.5 22.5 t-20.5 57.5z" />
<glyph unicode="&#xd0;" horiz-adv-x="1341" d="M77 689l18 102h145l116 665l388 -1q138 -3 239 -58.5t163.5 -147t86 -209.5t7.5 -246l-20 -133q-21 -140 -81.5 -261t-153.5 -210.5t-216 -140t-270 -49.5h-396l119 689h-145zM243 104l260 -1q123 0 224.5 43.5t178 119t126 177.5t67.5 218l20 137q14 102 0 200 t-59.5 175.5t-124 125.5t-194.5 51l-281 1l-98 -560h329l-18 -102h-328z" />
<glyph unicode="&#xd1;" horiz-adv-x="1420" d="M73 0l253 1456h118l598 -1249l217 1249h121l-252 -1456h-118l-597 1248l-217 -1248h-123zM552 1592q6 42 22.5 81t43 68.5t63 47t83.5 16.5q39 0 71 -18t62 -39t61.5 -38.5t69.5 -17.5q27 0 48 10.5t36.5 27.5t26 38.5t17.5 45.5l84 -5q-6 -42 -21.5 -81t-42 -69 t-63 -47.5t-83.5 -17.5q-40 0 -72 18t-61.5 39t-60 38.5t-68.5 17.5q-27 0 -48 -10t-36.5 -26t-26 -37t-16.5 -45z" />
<glyph unicode="&#xd2;" horiz-adv-x="1354" d="M123.5 489q-3.5 80 7.5 160l23 156q13 86 40.5 169.5t69 158.5t96.5 139t124 110t151 71t178 23q92 -2 164 -30.5t125 -76t87.5 -112t53.5 -138t22 -154t-8 -160.5l-23 -155q-14 -86 -41 -170t-68 -159t-95.5 -138.5t-123 -109t-151 -70.5t-178.5 -23q-92 2 -164 30 t-125 76t-88 112t-54 137.5t-22.5 153.5zM244.5 520.5q0.5 -65.5 11.5 -127t35 -116.5t63.5 -96.5t96 -66.5t132.5 -27q80 -2 147 19t122.5 60t98.5 93t75.5 117t53.5 133t32 140l24 160q8 63 8.5 128t-11 126.5t-35 116t-63 96t-96 66.5t-132.5 27q-80 2 -147 -19.5 t-122 -61t-99 -93.5t-76.5 -117t-53.5 -132.5t-32 -138.5l-24 -159q-9 -62 -8.5 -127.5zM632 1851h134l142 -279h-100z" />
<glyph unicode="&#xd3;" horiz-adv-x="1354" d="M123.5 489q-3.5 80 7.5 160l23 156q13 86 40.5 169.5t69 158.5t96.5 139t124 110t151 71t178 23q92 -2 164 -30.5t125 -76t87.5 -112t53.5 -138t22 -154t-8 -160.5l-23 -155q-14 -86 -41 -170t-68 -159t-95.5 -138.5t-123 -109t-151 -70.5t-178.5 -23q-92 2 -164 30 t-125 76t-88 112t-54 137.5t-22.5 153.5zM244.5 520.5q0.5 -65.5 11.5 -127t35 -116.5t63.5 -96.5t96 -66.5t132.5 -27q80 -2 147 19t122.5 60t98.5 93t75.5 117t53.5 133t32 140l24 160q8 63 8.5 128t-11 126.5t-35 116t-63 96t-96 66.5t-132.5 27q-80 2 -147 -19.5 t-122 -61t-99 -93.5t-76.5 -117t-53.5 -132.5t-32 -138.5l-24 -159q-9 -62 -8.5 -127.5zM765 1572l230 279l150 -1l-268 -277z" />
<glyph unicode="&#xd4;" horiz-adv-x="1354" d="M123.5 489q-3.5 80 7.5 160l23 156q13 86 40.5 169.5t69 158.5t96.5 139t124 110t151 71t178 23q92 -2 164 -30.5t125 -76t87.5 -112t53.5 -138t22 -154t-8 -160.5l-23 -155q-14 -86 -41 -170t-68 -159t-95.5 -138.5t-123 -109t-151 -70.5t-178.5 -23q-92 2 -164 30 t-125 76t-88 112t-54 137.5t-22.5 153.5zM244.5 520.5q0.5 -65.5 11.5 -127t35 -116.5t63.5 -96.5t96 -66.5t132.5 -27q80 -2 147 19t122.5 60t98.5 93t75.5 117t53.5 133t32 140l24 160q8 63 8.5 128t-11 126.5t-35 116t-63 96t-96 66.5t-132.5 27q-80 2 -147 -19.5 t-122 -61t-99 -93.5t-76.5 -117t-53.5 -132.5t-32 -138.5l-24 -159q-9 -62 -8.5 -127.5zM574 1585l1 14l270 254h73l198 -257l-1 -12l-108 1l-129 181l-194 -180z" />
<glyph unicode="&#xd5;" horiz-adv-x="1354" d="M123.5 489q-3.5 80 7.5 160l23 156q13 86 40.5 169.5t69 158.5t96.5 139t124 110t151 71t178 23q92 -2 164 -30.5t125 -76t87.5 -112t53.5 -138t22 -154t-8 -160.5l-23 -155q-14 -86 -41 -170t-68 -159t-95.5 -138.5t-123 -109t-151 -70.5t-178.5 -23q-92 2 -164 30 t-125 76t-88 112t-54 137.5t-22.5 153.5zM244.5 520.5q0.5 -65.5 11.5 -127t35 -116.5t63.5 -96.5t96 -66.5t132.5 -27q80 -2 147 19t122.5 60t98.5 93t75.5 117t53.5 133t32 140l24 160q8 63 8.5 128t-11 126.5t-35 116t-63 96t-96 66.5t-132.5 27q-80 2 -147 -19.5 t-122 -61t-99 -93.5t-76.5 -117t-53.5 -132.5t-32 -138.5l-24 -159q-9 -62 -8.5 -127.5zM520 1604q6 42 22.5 81t43 68.5t63 47t83.5 16.5q39 0 71 -18t62 -39t61.5 -38.5t69.5 -17.5q27 0 48 10.5t36.5 27.5t26 38.5t17.5 45.5l84 -5q-6 -42 -21.5 -81t-42 -69t-63 -47.5 t-83.5 -17.5q-40 0 -72 18t-61.5 39t-60 38.5t-68.5 17.5q-27 0 -48 -10t-36.5 -26t-26 -37t-16.5 -45z" />
<glyph unicode="&#xd6;" horiz-adv-x="1354" d="M123.5 489q-3.5 80 7.5 160l23 156q13 86 40.5 169.5t69 158.5t96.5 139t124 110t151 71t178 23q92 -2 164 -30.5t125 -76t87.5 -112t53.5 -138t22 -154t-8 -160.5l-23 -155q-14 -86 -41 -170t-68 -159t-95.5 -138.5t-123 -109t-151 -70.5t-178.5 -23q-92 2 -164 30 t-125 76t-88 112t-54 137.5t-22.5 153.5zM244.5 520.5q0.5 -65.5 11.5 -127t35 -116.5t63.5 -96.5t96 -66.5t132.5 -27q80 -2 147 19t122.5 60t98.5 93t75.5 117t53.5 133t32 140l24 160q8 63 8.5 128t-11 126.5t-35 116t-63 96t-96 66.5t-132.5 27q-80 2 -147 -19.5 t-122 -61t-99 -93.5t-76.5 -117t-53.5 -132.5t-32 -138.5l-24 -159q-9 -62 -8.5 -127.5zM577 1723q2 34 26 57.5t59 24.5q35 0 57.5 -23.5t19.5 -58.5q-2 -33 -27 -56t-58 -24q-35 0 -57 22.5t-20 57.5zM1001 1722q1 16 8 31t18.5 26t26.5 18t32 7q35 1 57 -23t20 -59 q-2 -34 -27 -56.5t-58 -23.5q-34 0 -56.5 22.5t-20.5 57.5z" />
<glyph unicode="&#xd7;" horiz-adv-x="1050" d="M17 184l411 366l-273 350l87 75l270 -350l394 349l68 -86l-394 -349l285 -366l-86 -74l-284 364l-410 -363z" />
<glyph unicode="&#xd8;" horiz-adv-x="1354" d="M42 -84l186 237q-35 49 -58 107.5t-34.5 122.5t-12.5 131.5t8 134.5l23 156q13 86 40.5 169.5t69 158.5t96.5 139t124 110t151 71t178 23q113 -3 195 -44t137 -109l143 182h111l-204 -260q49 -94 63.5 -208.5t-1.5 -231.5l-23 -155q-14 -86 -41 -170t-68 -159 t-95.5 -138.5t-123 -109t-151 -70.5t-178.5 -23q-94 2 -165 30.5t-125 76.5l-134 -171h-111zM244.5 544.5q-1.5 -52.5 4.5 -104t19 -99.5t36 -90l768 978q-40 61 -104 99t-161 41q-80 2 -147 -19.5t-122 -61t-99 -93.5t-76.5 -117t-53.5 -132.5t-32 -138.5l-24 -159 q-7 -51 -8.5 -103.5zM358 177q39 -40 94.5 -64t130.5 -26q80 -2 147 19t122.5 60t98.5 93t75.5 117t53.5 133t32 140l24 160q11 84 7 170t-30 162z" />
<glyph unicode="&#xd9;" horiz-adv-x="1316" d="M136 469l169 987h121l-168 -988q-10 -81 5 -150t54 -120t101 -81t146 -33q90 -3 166 24t134 78t95 123t51 160l169 987h123l-169 -986q-17 -112 -66 -203.5t-124 -156t-173 -99t-212 -32.5q-108 2 -192.5 38.5t-139.5 101t-79 154t-11 196.5zM621 1839h134l142 -279h-100 z" />
<glyph unicode="&#xda;" horiz-adv-x="1316" d="M136 469l169 987h121l-168 -988q-10 -81 5 -150t54 -120t101 -81t146 -33q90 -3 166 24t134 78t95 123t51 160l169 987h123l-169 -986q-17 -112 -66 -203.5t-124 -156t-173 -99t-212 -32.5q-108 2 -192.5 38.5t-139.5 101t-79 154t-11 196.5zM754 1560l230 279l150 -1 l-268 -277z" />
<glyph unicode="&#xdb;" horiz-adv-x="1316" d="M136 469l169 987h121l-168 -988q-10 -81 5 -150t54 -120t101 -81t146 -33q90 -3 166 24t134 78t95 123t51 160l169 987h123l-169 -986q-17 -112 -66 -203.5t-124 -156t-173 -99t-212 -32.5q-108 2 -192.5 38.5t-139.5 101t-79 154t-11 196.5zM563 1573l1 14l270 254h73 l198 -257l-1 -12l-108 1l-129 181l-194 -180z" />
<glyph unicode="&#xdc;" horiz-adv-x="1316" d="M136 469l169 987h121l-168 -988q-10 -81 5 -150t54 -120t101 -81t146 -33q90 -3 166 24t134 78t95 123t51 160l169 987h123l-169 -986q-17 -112 -66 -203.5t-124 -156t-173 -99t-212 -32.5q-108 2 -192.5 38.5t-139.5 101t-79 154t-11 196.5zM566 1711q2 34 26 57.5 t59 24.5q35 0 57.5 -23.5t19.5 -58.5q-2 -33 -27 -56t-58 -24q-35 0 -57 22.5t-20 57.5zM990 1710q1 16 8 31t18.5 26t26.5 18t32 7q35 1 57 -23t20 -59q-2 -34 -27 -56.5t-58 -23.5q-34 0 -56.5 22.5t-20.5 57.5z" />
<glyph unicode="&#xdd;" horiz-adv-x="1199" d="M174 1456h137l289 -792l568 792h148l-673 -914l-94 -542h-122l97 555zM685 1554l230 279l150 -1l-268 -277z" />
<glyph unicode="&#xde;" horiz-adv-x="1188" d="M72 0l253 1456h119l-53 -304l305 -1q90 -2 166 -30.5t129 -80.5t79.5 -126.5t17.5 -168.5q-10 -104 -55.5 -183t-116 -132t-160.5 -80t-188 -27l-320 1l-57 -324h-119zM265 425l307 -1q73 0 141 21.5t121.5 62.5t89 100t44.5 136q8 69 -8.5 124.5t-53 95t-91 62 t-121.5 24.5l-320 1z" />
<glyph unicode="&#xdf;" horiz-adv-x="1174" d="M41 0l193 1127q12 85 42.5 162t81 134.5t122 90.5t165.5 30q65 -2 121 -23t95.5 -59.5t60 -93t14.5 -122.5q-5 -63 -31 -115.5t-56 -102.5t-57.5 -101.5t-35.5 -112.5q-7 -50 10.5 -91t47.5 -78t66 -72.5t67 -74.5t50.5 -83t15.5 -99q-5 -81 -41.5 -144t-93 -106.5 t-128 -66t-147.5 -20.5q-37 0 -76.5 5t-78 14.5t-74.5 25t-66 38.5l46 99q50 -38 113 -59.5t126 -22.5q54 -1 105.5 14.5t93 46t69.5 74.5t35 101q6 52 -12 94t-48.5 79t-67 72t-67 73.5t-49.5 82.5t-14 100q6 61 32 112.5t56.5 101t57 100t33.5 110.5q5 42 -5 78.5 t-32.5 64t-56 43.5t-76.5 18q-71 3 -122.5 -23t-87 -70.5t-56 -102.5t-29.5 -120l-192 -1128h-119z" />
<glyph unicode="&#xe0;" horiz-adv-x="1074" d="M42 279q5 67 30.5 119t65.5 91t92 66t109.5 43.5t117 24t116.5 7.5l221 -1l18 124q6 57 -7 102.5t-42.5 77.5t-74 49.5t-101.5 19.5q-53 1 -104.5 -12.5t-94 -41t-73.5 -69t-43 -95.5h-117q11 79 54 139.5t105 101t136.5 60t148.5 18.5q79 -2 144 -26.5t109.5 -70 t65.5 -110.5t12 -146l-87 -524q-8 -53 -11 -107t8 -107l-2 -12h-123q-5 38 -3 75.5t9 75.5q-75 -81 -171.5 -127t-208.5 -44q-65 1 -121.5 22.5t-97.5 60.5t-63 93.5t-17 122.5zM164 289q-5 -47 8.5 -84t40.5 -63.5t65.5 -41t82.5 -15.5q59 -2 114 13t103 43t88.5 68 t71.5 89l41 239l-191 1q-41 0 -87 -4.5t-91.5 -15.5t-87.5 -29t-75.5 -45.5t-55.5 -66t-27 -88.5zM467 1524h134l142 -279h-100z" />
<glyph unicode="&#xe1;" horiz-adv-x="1074" d="M42 279q5 67 30.5 119t65.5 91t92 66t109.5 43.5t117 24t116.5 7.5l221 -1l18 124q6 57 -7 102.5t-42.5 77.5t-74 49.5t-101.5 19.5q-53 1 -104.5 -12.5t-94 -41t-73.5 -69t-43 -95.5h-117q11 79 54 139.5t105 101t136.5 60t148.5 18.5q79 -2 144 -26.5t109.5 -70 t65.5 -110.5t12 -146l-87 -524q-8 -53 -11 -107t8 -107l-2 -12h-123q-5 38 -3 75.5t9 75.5q-75 -81 -171.5 -127t-208.5 -44q-65 1 -121.5 22.5t-97.5 60.5t-63 93.5t-17 122.5zM164 289q-5 -47 8.5 -84t40.5 -63.5t65.5 -41t82.5 -15.5q59 -2 114 13t103 43t88.5 68 t71.5 89l41 239l-191 1q-41 0 -87 -4.5t-91.5 -15.5t-87.5 -29t-75.5 -45.5t-55.5 -66t-27 -88.5zM600 1245l230 279l150 -1l-268 -277z" />
<glyph unicode="&#xe2;" horiz-adv-x="1074" d="M42 279q5 67 30.5 119t65.5 91t92 66t109.5 43.5t117 24t116.5 7.5l221 -1l18 124q6 57 -7 102.5t-42.5 77.5t-74 49.5t-101.5 19.5q-53 1 -104.5 -12.5t-94 -41t-73.5 -69t-43 -95.5h-117q11 79 54 139.5t105 101t136.5 60t148.5 18.5q79 -2 144 -26.5t109.5 -70 t65.5 -110.5t12 -146l-87 -524q-8 -53 -11 -107t8 -107l-2 -12h-123q-5 38 -3 75.5t9 75.5q-75 -81 -171.5 -127t-208.5 -44q-65 1 -121.5 22.5t-97.5 60.5t-63 93.5t-17 122.5zM164 289q-5 -47 8.5 -84t40.5 -63.5t65.5 -41t82.5 -15.5q59 -2 114 13t103 43t88.5 68 t71.5 89l41 239l-191 1q-41 0 -87 -4.5t-91.5 -15.5t-87.5 -29t-75.5 -45.5t-55.5 -66t-27 -88.5zM409 1258l1 14l270 254h73l198 -257l-1 -12l-108 1l-129 181l-194 -180z" />
<glyph unicode="&#xe3;" horiz-adv-x="1074" d="M42 279q5 67 30.5 119t65.5 91t92 66t109.5 43.5t117 24t116.5 7.5l221 -1l18 124q6 57 -7 102.5t-42.5 77.5t-74 49.5t-101.5 19.5q-53 1 -104.5 -12.5t-94 -41t-73.5 -69t-43 -95.5h-117q11 79 54 139.5t105 101t136.5 60t148.5 18.5q79 -2 144 -26.5t109.5 -70 t65.5 -110.5t12 -146l-87 -524q-8 -53 -11 -107t8 -107l-2 -12h-123q-5 38 -3 75.5t9 75.5q-75 -81 -171.5 -127t-208.5 -44q-65 1 -121.5 22.5t-97.5 60.5t-63 93.5t-17 122.5zM164 289q-5 -47 8.5 -84t40.5 -63.5t65.5 -41t82.5 -15.5q59 -2 114 13t103 43t88.5 68 t71.5 89l41 239l-191 1q-41 0 -87 -4.5t-91.5 -15.5t-87.5 -29t-75.5 -45.5t-55.5 -66t-27 -88.5zM355 1277q6 42 22.5 81t43 68.5t63 47t83.5 16.5q39 0 71 -18t62 -39t61.5 -38.5t69.5 -17.5q27 0 48 10.5t36.5 27.5t26 38.5t17.5 45.5l84 -5q-6 -42 -21.5 -81t-42 -69 t-63 -47.5t-83.5 -17.5q-40 0 -72 18t-61.5 39t-60 38.5t-68.5 17.5q-27 0 -48 -10t-36.5 -26t-26 -37t-16.5 -45z" />
<glyph unicode="&#xe4;" horiz-adv-x="1074" d="M42 279q5 67 30.5 119t65.5 91t92 66t109.5 43.5t117 24t116.5 7.5l221 -1l18 124q6 57 -7 102.5t-42.5 77.5t-74 49.5t-101.5 19.5q-53 1 -104.5 -12.5t-94 -41t-73.5 -69t-43 -95.5h-117q11 79 54 139.5t105 101t136.5 60t148.5 18.5q79 -2 144 -26.5t109.5 -70 t65.5 -110.5t12 -146l-87 -524q-8 -53 -11 -107t8 -107l-2 -12h-123q-5 38 -3 75.5t9 75.5q-75 -81 -171.5 -127t-208.5 -44q-65 1 -121.5 22.5t-97.5 60.5t-63 93.5t-17 122.5zM164 289q-5 -47 8.5 -84t40.5 -63.5t65.5 -41t82.5 -15.5q59 -2 114 13t103 43t88.5 68 t71.5 89l41 239l-191 1q-41 0 -87 -4.5t-91.5 -15.5t-87.5 -29t-75.5 -45.5t-55.5 -66t-27 -88.5zM412 1396q2 34 26 57.5t59 24.5q35 0 57.5 -23.5t19.5 -58.5q-2 -33 -27 -56t-58 -24q-35 0 -57 22.5t-20 57.5zM836 1395q1 16 8 31t18.5 26t26.5 18t32 7q35 1 57 -23 t20 -59q-2 -34 -27 -56.5t-58 -23.5q-34 0 -56.5 22.5t-20.5 57.5z" />
<glyph unicode="&#xe5;" horiz-adv-x="1074" d="M42 279q5 67 30.5 119t65.5 91t92 66t109.5 43.5t117 24t116.5 7.5l221 -1l18 124q6 57 -7 102.5t-42.5 77.5t-74 49.5t-101.5 19.5q-53 1 -104.5 -12.5t-94 -41t-73.5 -69t-43 -95.5h-117q11 79 54 139.5t105 101t136.5 60t148.5 18.5q79 -2 144 -26.5t109.5 -70 t65.5 -110.5t12 -146l-87 -524q-8 -53 -11 -107t8 -107l-2 -12h-123q-5 38 -3 75.5t9 75.5q-75 -81 -171.5 -127t-208.5 -44q-65 1 -121.5 22.5t-97.5 60.5t-63 93.5t-17 122.5zM164 289q-5 -47 8.5 -84t40.5 -63.5t65.5 -41t82.5 -15.5q59 -2 114 13t103 43t88.5 68 t71.5 89l41 239l-191 1q-41 0 -87 -4.5t-91.5 -15.5t-87.5 -29t-75.5 -45.5t-55.5 -66t-27 -88.5zM514 1392q1 40 17 76.5t43 63.5t63 43t77 16q38 0 70.5 -14.5t56.5 -39.5t37 -58.5t12 -70.5q-1 -41 -17.5 -76.5t-43.5 -62t-63 -42t-77 -15.5q-38 0 -70.5 14t-56 38 t-36.5 57t-12 71zM591 1394q-2 -22 3.5 -42t18 -35.5t31 -24t41.5 -8.5q25 0 47.5 10t39.5 26.5t28 39t14 46.5q2 22 -3.5 42.5t-18.5 36.5t-31.5 25t-42.5 9q-25 0 -47 -10.5t-39 -27.5t-28 -40t-13 -47z" />
<glyph unicode="&#xe6;" horiz-adv-x="1690" d="M29 285q7 95 50.5 161.5t110.5 108t149.5 60t166.5 18.5l255 -1l12 89q6 54 -0.5 104t-29 88.5t-63 62t-101.5 25.5q-57 1 -110.5 -13.5t-97 -44t-73.5 -74.5t-42 -103l-115 12q11 83 53 145t103 102.5t136.5 59.5t153.5 17q52 -1 101 -14t89 -39.5t68.5 -65.5t40.5 -93 q36 47 78 86.5t90 68t103 43.5t116 14q99 -2 169 -40.5t112 -102.5t56.5 -147t3.5 -174l-15 -100h-732l-5 -30q-11 -77 -3.5 -152t39.5 -135.5t90 -98.5t147 -40q93 -2 175 30t156 87l39 -89q-78 -69 -175 -100t-200 -29q-55 1 -108 13.5t-99.5 37.5t-84 63t-61.5 91 q-81 -106 -197.5 -157.5t-247.5 -48.5q-69 1 -127 21.5t-98.5 59.5t-61.5 95.5t-16 128.5zM149 281q-5 -50 8.5 -87.5t41.5 -62.5t68 -38t87 -13q48 -1 95 10.5t90.5 32t82.5 49.5t71 63l53 301l-240 1q-60 0 -120.5 -15t-110.5 -46t-84.5 -79.5t-41.5 -115.5zM880 636h615 l5 32q9 64 0 123t-37.5 105t-77.5 74.5t-120 30.5q-80 2 -142 -29.5t-109.5 -83.5t-80 -118.5t-53.5 -133.5z" />
<glyph unicode="&#xe7;" horiz-adv-x="1033" d="M79 517l5 43q13 106 53.5 205t107.5 175t159 120.5t208 41.5q84 -2 150.5 -32t112.5 -81t69 -121t19 -152l-113 1q2 58 -13 109t-46 89t-77.5 60.5t-107.5 24.5q-93 3 -164 -34.5t-121 -100.5t-79.5 -143.5t-40.5 -161.5l-5 -42q-6 -49 -5.5 -100t8.5 -99t26 -90.5 t48.5 -75t74 -52t103.5 -21.5q61 -2 115 15.5t97 50.5t74 80.5t47 106.5h113q-15 -81 -57 -147t-102.5 -112.5t-135.5 -71.5t-157 -23q-113 3 -188 50.5t-118 123.5t-57 171t-3 193zM256 -446l1 79q31 1 67.5 7t68.5 20t55 38t28 62q4 34 -9.5 53t-36.5 29.5t-51 15t-52 7.5 l45 126h90l-22 -66q66 -12 102 -52.5t33 -109.5q-3 -62 -34.5 -102t-78 -63t-101.5 -33t-105 -11z" />
<glyph unicode="&#xe8;" horiz-adv-x="1036" d="M74 507l5 44q12 102 54 202t110.5 178.5t161 126t205.5 44.5q104 -3 174.5 -46.5t111 -113t54 -157.5t3.5 -179l-8 -73h-749l-5 -24q-11 -73 0 -148t45 -136t92.5 -100.5t142.5 -42.5q48 -2 91.5 8t82.5 29t74.5 46.5t68.5 60.5l70 -57q-74 -94 -175 -142.5t-221 -46.5 q-109 2 -187 48t-125.5 120t-66 167.5t-9.5 191.5zM209 635l629 -1l2 15q9 62 -0.5 124t-38.5 111.5t-78 81.5t-119 35q-80 3 -144 -28.5t-112.5 -84t-83 -119t-55.5 -134.5zM454 1524h134l142 -279h-100z" />
<glyph unicode="&#xe9;" horiz-adv-x="1036" d="M74 507l5 44q12 102 54 202t110.5 178.5t161 126t205.5 44.5q104 -3 174.5 -46.5t111 -113t54 -157.5t3.5 -179l-8 -73h-749l-5 -24q-11 -73 0 -148t45 -136t92.5 -100.5t142.5 -42.5q48 -2 91.5 8t82.5 29t74.5 46.5t68.5 60.5l70 -57q-74 -94 -175 -142.5t-221 -46.5 q-109 2 -187 48t-125.5 120t-66 167.5t-9.5 191.5zM209 635l629 -1l2 15q9 62 -0.5 124t-38.5 111.5t-78 81.5t-119 35q-80 3 -144 -28.5t-112.5 -84t-83 -119t-55.5 -134.5zM587 1245l230 279l150 -1l-268 -277z" />
<glyph unicode="&#xea;" horiz-adv-x="1036" d="M74 507l5 44q12 102 54 202t110.5 178.5t161 126t205.5 44.5q104 -3 174.5 -46.5t111 -113t54 -157.5t3.5 -179l-8 -73h-749l-5 -24q-11 -73 0 -148t45 -136t92.5 -100.5t142.5 -42.5q48 -2 91.5 8t82.5 29t74.5 46.5t68.5 60.5l70 -57q-74 -94 -175 -142.5t-221 -46.5 q-109 2 -187 48t-125.5 120t-66 167.5t-9.5 191.5zM209 635l629 -1l2 15q9 62 -0.5 124t-38.5 111.5t-78 81.5t-119 35q-80 3 -144 -28.5t-112.5 -84t-83 -119t-55.5 -134.5zM396 1258l1 14l270 254h73l198 -257l-1 -12l-108 1l-129 181l-194 -180z" />
<glyph unicode="&#xeb;" horiz-adv-x="1036" d="M74 507l5 44q12 102 54 202t110.5 178.5t161 126t205.5 44.5q104 -3 174.5 -46.5t111 -113t54 -157.5t3.5 -179l-8 -73h-749l-5 -24q-11 -73 0 -148t45 -136t92.5 -100.5t142.5 -42.5q48 -2 91.5 8t82.5 29t74.5 46.5t68.5 60.5l70 -57q-74 -94 -175 -142.5t-221 -46.5 q-109 2 -187 48t-125.5 120t-66 167.5t-9.5 191.5zM209 635l629 -1l2 15q9 62 -0.5 124t-38.5 111.5t-78 81.5t-119 35q-80 3 -144 -28.5t-112.5 -84t-83 -119t-55.5 -134.5zM399 1396q2 34 26 57.5t59 24.5q35 0 57.5 -23.5t19.5 -58.5q-2 -33 -27 -56t-58 -24 q-35 0 -57 22.5t-20 57.5zM823 1395q1 16 8 31t18.5 26t26.5 18t32 7q35 1 57 -23t20 -59q-2 -34 -27 -56.5t-58 -23.5q-34 0 -56.5 22.5t-20.5 57.5z" />
<glyph unicode="&#xec;" horiz-adv-x="452" d="M57 0l189 1082h119l-188 -1082h-120zM127 1512h134l142 -279h-100z" />
<glyph unicode="&#xed;" horiz-adv-x="452" d="M57 0l189 1082h119l-188 -1082h-120zM259 1233l230 279l150 -1l-268 -277z" />
<glyph unicode="&#xee;" horiz-adv-x="452" d="M57 0l189 1082h119l-188 -1082h-120zM69 1246l1 14l270 254h73l198 -257l-1 -12l-108 1l-129 181l-194 -180z" />
<glyph unicode="&#xef;" horiz-adv-x="452" d="M57 0l189 1082h119l-188 -1082h-120zM72 1384q2 34 26 57.5t59 24.5q35 0 57.5 -23.5t19.5 -58.5q-2 -33 -27 -56t-58 -24q-35 0 -57 22.5t-20 57.5zM496 1383q1 16 8 31t18.5 26t26.5 18t32 7q35 1 57 -23t20 -59q-2 -34 -27 -56.5t-58 -23.5q-34 0 -56.5 22.5 t-20.5 57.5z" />
<glyph unicode="&#xf0;" horiz-adv-x="1165" d="M122 458q10 102 48 195t102 163.5t152 111.5t198 38q88 -2 168 -38t134 -107q2 112 -26.5 218t-93.5 200l-244 -139l-40 79l221 125q-64 61 -142 102t-161 70l49 101q101 -34 192.5 -85t169.5 -125l211 121l40 -79l-191 -108q49 -77 78 -159t42.5 -168t12 -174 t-13.5 -177l-12 -88q-10 -66 -30.5 -133.5t-52 -130t-74.5 -117t-96.5 -94t-118.5 -61.5t-141 -20q-99 3 -174 43t-124 106t-70.5 151.5t-12.5 178.5zM242 458q-8 -69 5 -135.5t46.5 -119t88.5 -86t131 -35.5q60 -2 109.5 17t89.5 52.5t71 79t53.5 96.5t37 104.5t21.5 103.5 l12 91l6 60q-17 45 -45 77.5t-64.5 54t-79 32.5t-88.5 12q-89 2 -158 -30.5t-118.5 -88.5t-79 -130t-38.5 -155z" />
<glyph unicode="&#xf1;" horiz-adv-x="1101" d="M46 0l188 1082h114l-36 -185q33 46 73 84t86.5 65.5t99 42t110.5 13.5q88 -2 145.5 -34.5t89.5 -87t41.5 -126t0.5 -150.5l-118 -704h-118l118 706q6 57 1.5 109.5t-25.5 93t-61.5 64.5t-106.5 26q-62 1 -115.5 -19.5t-98 -56t-80 -83t-62.5 -98.5l-128 -742h-118z M351 1276q6 42 22.5 81t43 68.5t63 47t83.5 16.5q39 0 71 -18t62 -39t61.5 -38.5t69.5 -17.5q27 0 48 10.5t36.5 27.5t26 38.5t17.5 45.5l84 -5q-6 -42 -21.5 -81t-42 -69t-63 -47.5t-83.5 -17.5q-40 0 -72 18t-61.5 39t-60 38.5t-68.5 17.5q-27 0 -48 -10t-36.5 -26 t-26 -37t-16.5 -45z" />
<glyph unicode="&#xf2;" horiz-adv-x="1123" d="M73.5 386q-5.5 65 1.5 131l4 33q13 108 57 209t114.5 178t166.5 122.5t213 42.5q112 -3 190.5 -50.5t126 -123.5t64 -172t6.5 -196l-4 -34q-14 -108 -58 -207.5t-114.5 -176t-166 -121t-212.5 -41.5q-74 2 -133.5 24t-105 59.5t-77 88t-49.5 110t-23.5 124.5zM194 516 q-8 -74 1 -150t40.5 -139t88.5 -103.5t145 -43.5q93 -3 166.5 36t127.5 102.5t87.5 144.5t44.5 164l4 32q9 74 0 151t-41 141t-89.5 105.5t-145.5 44.5q-93 3 -167 -36.5t-127.5 -104t-86.5 -146.5t-44 -164zM468 1524h134l142 -279h-100z" />
<glyph unicode="&#xf3;" horiz-adv-x="1123" d="M73.5 386q-5.5 65 1.5 131l4 33q13 108 57 209t114.5 178t166.5 122.5t213 42.5q112 -3 190.5 -50.5t126 -123.5t64 -172t6.5 -196l-4 -34q-14 -108 -58 -207.5t-114.5 -176t-166 -121t-212.5 -41.5q-74 2 -133.5 24t-105 59.5t-77 88t-49.5 110t-23.5 124.5zM194 516 q-8 -74 1 -150t40.5 -139t88.5 -103.5t145 -43.5q93 -3 166.5 36t127.5 102.5t87.5 144.5t44.5 164l4 32q9 74 0 151t-41 141t-89.5 105.5t-145.5 44.5q-93 3 -167 -36.5t-127.5 -104t-86.5 -146.5t-44 -164zM601 1245l230 279l150 -1l-268 -277z" />
<glyph unicode="&#xf4;" horiz-adv-x="1123" d="M73.5 386q-5.5 65 1.5 131l4 33q13 108 57 209t114.5 178t166.5 122.5t213 42.5q112 -3 190.5 -50.5t126 -123.5t64 -172t6.5 -196l-4 -34q-14 -108 -58 -207.5t-114.5 -176t-166 -121t-212.5 -41.5q-74 2 -133.5 24t-105 59.5t-77 88t-49.5 110t-23.5 124.5zM194 516 q-8 -74 1 -150t40.5 -139t88.5 -103.5t145 -43.5q93 -3 166.5 36t127.5 102.5t87.5 144.5t44.5 164l4 32q9 74 0 151t-41 141t-89.5 105.5t-145.5 44.5q-93 3 -167 -36.5t-127.5 -104t-86.5 -146.5t-44 -164zM410 1258l1 14l270 254h73l198 -257l-1 -12l-108 1l-129 181 l-194 -180z" />
<glyph unicode="&#xf5;" horiz-adv-x="1123" d="M73.5 386q-5.5 65 1.5 131l4 33q13 108 57 209t114.5 178t166.5 122.5t213 42.5q112 -3 190.5 -50.5t126 -123.5t64 -172t6.5 -196l-4 -34q-14 -108 -58 -207.5t-114.5 -176t-166 -121t-212.5 -41.5q-74 2 -133.5 24t-105 59.5t-77 88t-49.5 110t-23.5 124.5zM194 516 q-8 -74 1 -150t40.5 -139t88.5 -103.5t145 -43.5q93 -3 166.5 36t127.5 102.5t87.5 144.5t44.5 164l4 32q9 74 0 151t-41 141t-89.5 105.5t-145.5 44.5q-93 3 -167 -36.5t-127.5 -104t-86.5 -146.5t-44 -164zM356 1276q6 42 22.5 81t43 68.5t63 47t83.5 16.5q39 0 71 -18 t62 -39t61.5 -38.5t69.5 -17.5q27 0 48 10.5t36.5 27.5t26 38.5t17.5 45.5l84 -5q-6 -42 -21.5 -81t-42 -69t-63 -47.5t-83.5 -17.5q-40 0 -72 18t-61.5 39t-60 38.5t-68.5 17.5q-27 0 -48 -10t-36.5 -26t-26 -37t-16.5 -45z" />
<glyph unicode="&#xf6;" horiz-adv-x="1123" d="M73.5 386q-5.5 65 1.5 131l4 33q13 108 57 209t114.5 178t166.5 122.5t213 42.5q112 -3 190.5 -50.5t126 -123.5t64 -172t6.5 -196l-4 -34q-14 -108 -58 -207.5t-114.5 -176t-166 -121t-212.5 -41.5q-74 2 -133.5 24t-105 59.5t-77 88t-49.5 110t-23.5 124.5zM194 516 q-8 -74 1 -150t40.5 -139t88.5 -103.5t145 -43.5q93 -3 166.5 36t127.5 102.5t87.5 144.5t44.5 164l4 32q9 74 0 151t-41 141t-89.5 105.5t-145.5 44.5q-93 3 -167 -36.5t-127.5 -104t-86.5 -146.5t-44 -164zM413 1396q2 34 26 57.5t59 24.5q35 0 57.5 -23.5t19.5 -58.5 q-2 -33 -27 -56t-58 -24q-35 0 -57 22.5t-20 57.5zM837 1395q1 16 8 31t18.5 26t26.5 18t32 7q35 1 57 -23t20 -59q-2 -34 -27 -56.5t-58 -23.5q-34 0 -56.5 22.5t-20.5 57.5z" />
<glyph unicode="&#xf7;" horiz-adv-x="1139" d="M76 644l21 116h971l-21 -116h-971zM426 291q2 35 27 59t60 25q36 1 59.5 -23.5t20.5 -60.5q-3 -35 -28.5 -58t-60.5 -24t-58 22.5t-20 59.5zM564 1088q2 35 27 59t60 25q36 1 59.5 -23.5t20.5 -60.5q-3 -35 -28.5 -58.5t-60.5 -24.5q-18 0 -33 6t-25.5 17t-16 26.5 t-3.5 33.5z" />
<glyph unicode="&#xf8;" horiz-adv-x="1117" d="M61 -139l142 218q-40 39 -68 88.5t-44 106t-20.5 118.5t2.5 125l4 33q13 108 57 209t114.5 178t166.5 122.5t213 42.5q61 -2 111.5 -17t92.5 -41l110 169h93l-142 -220q38 -39 64.5 -88.5t41.5 -105.5t18.5 -117t-2.5 -122l-4 -34q-14 -108 -58 -207.5t-114.5 -176 t-166 -121t-212.5 -41.5q-56 2 -103 14.5t-86 34.5l-108 -168h-102zM188 424.5q1 -46.5 9.5 -91t25.5 -85t43 -73.5l506 777q-30 22 -67.5 34.5t-83.5 14.5q-93 3 -167 -36.5t-127.5 -104t-86.5 -146.5t-44 -164l-4 -34q-5 -45 -4 -91.5zM329 118q28 -17 62 -27t76 -11 q93 -3 166.5 36t127.5 102.5t87.5 144.5t44.5 164l4 32q5 43 4 88.5t-9 89t-23.5 84t-39.5 73.5z" />
<glyph unicode="&#xf9;" horiz-adv-x="1101" d="M114 389l116 693h118l-115 -696q-6 -54 -1.5 -107.5t24.5 -96t59.5 -69.5t103.5 -29q53 -2 108.5 10.5t104.5 39.5t86.5 68t54.5 96l134 784h120l-188 -1082h-116l29 136q-67 -84 -158 -121.5t-198 -34.5q-89 2 -147.5 36.5t-91.5 90.5t-42.5 129t-0.5 153zM461 1524h134 l142 -279h-100z" />
<glyph unicode="&#xfa;" horiz-adv-x="1101" d="M114 389l116 693h118l-115 -696q-6 -54 -1.5 -107.5t24.5 -96t59.5 -69.5t103.5 -29q53 -2 108.5 10.5t104.5 39.5t86.5 68t54.5 96l134 784h120l-188 -1082h-116l29 136q-67 -84 -158 -121.5t-198 -34.5q-89 2 -147.5 36.5t-91.5 90.5t-42.5 129t-0.5 153zM594 1245 l230 279l150 -1l-268 -277z" />
<glyph unicode="&#xfb;" horiz-adv-x="1101" d="M114 389l116 693h118l-115 -696q-6 -54 -1.5 -107.5t24.5 -96t59.5 -69.5t103.5 -29q53 -2 108.5 10.5t104.5 39.5t86.5 68t54.5 96l134 784h120l-188 -1082h-116l29 136q-67 -84 -158 -121.5t-198 -34.5q-89 2 -147.5 36.5t-91.5 90.5t-42.5 129t-0.5 153zM403 1258 l1 14l270 254h73l198 -257l-1 -12l-108 1l-129 181l-194 -180z" />
<glyph unicode="&#xfc;" horiz-adv-x="1101" d="M114 389l116 693h118l-115 -696q-6 -54 -1.5 -107.5t24.5 -96t59.5 -69.5t103.5 -29q53 -2 108.5 10.5t104.5 39.5t86.5 68t54.5 96l134 784h120l-188 -1082h-116l29 136q-67 -84 -158 -121.5t-198 -34.5q-89 2 -147.5 36.5t-91.5 90.5t-42.5 129t-0.5 153zM406 1396 q2 34 26 57.5t59 24.5q35 0 57.5 -23.5t19.5 -58.5q-2 -33 -27 -56t-58 -24q-35 0 -57 22.5t-20 57.5zM830 1395q1 16 8 31t18.5 26t26.5 18t32 7q35 1 57 -23t20 -59q-2 -34 -27 -56.5t-58 -23.5q-34 0 -56.5 22.5t-20.5 57.5z" />
<glyph unicode="&#xfd;" horiz-adv-x="954" d="M-88 -424l12 98q15 -2 30 -4.5t30 -2.5q50 -2 90 13t72.5 42t57.5 64t45 79l76 151l-209 1066h125l167 -906l463 906h133l-660 -1256q-26 -52 -57.5 -100.5t-72 -85.5t-91.5 -59t-115 -21q-24 1 -48 5.5t-48 10.5zM536 1245l230 279l150 -1l-268 -277z" />
<glyph unicode="&#xfe;" horiz-adv-x="1126" d="M-23 -416l72 416h-1l267 1536h120l-103 -591q66 77 151 118.5t189 38.5q73 -2 127 -26.5t92 -65t60.5 -94t33.5 -113.5t12 -123t-6 -122l-3 -21q-9 -66 -26.5 -133.5t-46 -130t-67.5 -117t-90 -94.5t-114 -62.5t-140 -20.5q-93 2 -175.5 39.5t-133.5 117.5l-100 -552 h-118zM215 271q32 -92 101.5 -140t166.5 -51q62 -2 113 16.5t91.5 52t71.5 78.5t53 96.5t36 106t21 107.5l3 21q5 45 6 94.5t-5.5 98t-22 92.5t-43 78t-69 55t-99.5 23q-56 1 -105 -13t-90.5 -41t-76 -65t-61.5 -84z" />
<glyph unicode="&#xff;" horiz-adv-x="954" d="M-88 -424l12 98q15 -2 30 -4.5t30 -2.5q50 -2 90 13t72.5 42t57.5 64t45 79l76 151l-209 1066h125l167 -906l463 906h133l-660 -1256q-26 -52 -57.5 -100.5t-72 -85.5t-91.5 -59t-115 -21q-24 1 -48 5.5t-48 10.5zM348 1396q2 34 26 57.5t59 24.5q35 0 57.5 -23.5 t19.5 -58.5q-2 -33 -27 -56t-58 -24q-35 0 -57 22.5t-20 57.5zM772 1395q1 16 8 31t18.5 26t26.5 18t32 7q35 1 57 -23t20 -59q-2 -34 -27 -56.5t-58 -23.5q-34 0 -56.5 22.5t-20.5 57.5z" />
<glyph unicode="&#x152;" horiz-adv-x="1866" d="M102 576l48 304q19 120 69 228.5t128.5 191t184 130.5t235.5 48q78 -1 154.5 -7.5t153.5 -14.5h818l-19 -105h-754l-96 -549h661l-18 -104h-660l-104 -594h760l-18 -104h-814q-75 -8 -151 -14.5t-152 -4.5q-123 3 -210 54.5t-140 135t-72 189t-4 216.5zM214.5 459 q1.5 -58 13.5 -112t35.5 -101.5t61 -82.5t88.5 -56t119 -23q62 -2 123.5 1t123.5 11l220 1266q-59 8 -118 12t-118 4q-108 0 -193 -40.5t-146.5 -108.5t-100 -158t-53.5 -189l-49 -307q-8 -58 -6.5 -116z" />
<glyph unicode="&#x153;" horiz-adv-x="1845" d="M79 517l4 33q13 108 56 209t112.5 178t165 122.5t213.5 42.5q64 -2 123 -20.5t107.5 -53.5t84 -85t53.5 -113q36 57 81.5 107.5t99.5 87.5t116.5 58t133.5 20q98 -3 168.5 -41.5t113 -102t58.5 -146.5t5 -173l-15 -102h-738l-5 -30q-11 -70 -2.5 -144t39 -136 t85.5 -102.5t138 -43.5q96 -3 179.5 27t156.5 90l43 -82q-78 -75 -177.5 -106.5t-205.5 -29.5q-63 1 -120 20.5t-104.5 54t-82.5 83t-53 108.5q-38 -61 -85.5 -111t-104 -85.5t-122 -54.5t-139.5 -17q-111 3 -188.5 50t-124 122.5t-63.5 171t-6 194.5zM194.5 417 q1.5 -51 12 -99t30.5 -90.5t52 -74.5t76 -51.5t103 -21.5q93 -3 166 35.5t126 102.5t85.5 145t43.5 163l4 33q9 73 0.5 150t-39 141t-87 106t-144.5 45q-62 2 -115.5 -15.5t-98 -49.5t-79.5 -76t-61 -94.5t-43 -106t-24 -109.5l-4 -33q-5 -49 -3.5 -100zM1035 639h620l5 31 q8 62 -2.5 121t-40 104.5t-78 74.5t-117.5 31q-78 2 -140.5 -29.5t-110 -83.5t-81.5 -117.5t-55 -131.5z" />
<glyph unicode="&#x178;" horiz-adv-x="1199" d="M174 1456h137l289 -792l568 792h148l-673 -914l-94 -542h-122l97 555zM497 1705q2 34 26 57.5t59 24.5q35 0 57.5 -23.5t19.5 -58.5q-2 -33 -27 -56t-58 -24q-35 0 -57 22.5t-20 57.5zM921 1704q1 16 8 31t18.5 26t26.5 18t32 7q35 1 57 -23t20 -59q-2 -34 -27 -56.5 t-58 -23.5q-34 0 -56.5 22.5t-20.5 57.5z" />
<glyph unicode="&#x2c6;" horiz-adv-x="864" d="M270 1258l1 14l270 254h73l198 -257l-1 -12l-108 1l-129 181l-194 -180z" />
<glyph unicode="&#x2dc;" horiz-adv-x="874" d="M205 1268q6 42 22.5 81t43 68.5t63 47t83.5 16.5q39 0 71 -18t62 -39t61.5 -38.5t69.5 -17.5q27 0 48 10.5t36.5 27.5t26 38.5t17.5 45.5l84 -5q-6 -42 -21.5 -81t-42 -69t-63 -47.5t-83.5 -17.5q-40 0 -72 18t-61.5 39t-60 38.5t-68.5 17.5q-27 0 -48 -10t-36.5 -26 t-26 -37t-16.5 -45z" />
<glyph unicode="&#x2000;" horiz-adv-x="953" />
<glyph unicode="&#x2001;" horiz-adv-x="1906" />
<glyph unicode="&#x2002;" horiz-adv-x="953" />
<glyph unicode="&#x2003;" horiz-adv-x="1906" />
<glyph unicode="&#x2004;" horiz-adv-x="635" />
<glyph unicode="&#x2005;" horiz-adv-x="476" />
<glyph unicode="&#x2006;" horiz-adv-x="317" />
<glyph unicode="&#x2007;" horiz-adv-x="317" />
<glyph unicode="&#x2008;" horiz-adv-x="238" />
<glyph unicode="&#x2009;" horiz-adv-x="381" />
<glyph unicode="&#x200a;" horiz-adv-x="105" />
<glyph unicode="&#x2010;" horiz-adv-x="578" d="M45 592l18 101h467l-18 -101h-467z" />
<glyph unicode="&#x2011;" horiz-adv-x="578" d="M45 592l18 101h467l-18 -101h-467z" />
<glyph unicode="&#x2012;" horiz-adv-x="578" d="M45 592l18 101h467l-18 -101h-467z" />
<glyph unicode="&#x2013;" horiz-adv-x="1304" d="M170 686l22 102h976l-23 -102h-975z" />
<glyph unicode="&#x2014;" horiz-adv-x="1543" d="M143 686l30 102h1301l-30 -102h-1301z" />
<glyph unicode="&#x2018;" horiz-adv-x="363" d="M184 1121l17 110q15 98 64 179.5t124 144.5l69 -54q-51 -59 -86.5 -123t-49.5 -142l-20 -115h-118z" />
<glyph unicode="&#x2019;" horiz-adv-x="363" d="M156 1153q51 60 86 123.5t49 141.5l21 118h117l-18 -115q-15 -97 -62 -179t-122 -145z" />
<glyph unicode="&#x201a;" horiz-adv-x="352" d="M-95 -177q51 59 85.5 122.5t48.5 141.5l21 118h118l-17 -114q-16 -98 -65 -179t-124 -144z" />
<glyph unicode="&#x201c;" horiz-adv-x="604" d="M185 1121l17 110q15 98 64 179.5t124 144.5l69 -54q-51 -59 -86.5 -123t-49.5 -142l-20 -115h-118zM428 1121l17 110q15 98 64 179.5t124 144.5l69 -54q-51 -59 -86.5 -123t-49.5 -142l-20 -115h-118z" />
<glyph unicode="&#x201d;" horiz-adv-x="608" d="M162 1153q51 60 86 123.5t49 141.5l21 118h117l-18 -115q-15 -97 -62 -179t-122 -145zM399 1153q51 60 86 123.5t49 141.5l21 118h117l-18 -115q-15 -97 -62 -179t-122 -145z" />
<glyph unicode="&#x201e;" horiz-adv-x="585" d="M-97 -186q51 61 86.5 127.5t49.5 145.5l26 149h118l-23 -146q-16 -100 -64.5 -183t-125.5 -148zM131 -185q52 61 86 127t48 145l26 149h119l-23 -146q-14 -98 -60 -182t-120 -150z" />
<glyph unicode="&#x2022;" horiz-adv-x="652" d="M166 709l3 67q3 40 18 74t40.5 59t60 38.5t75.5 13.5q40 0 71.5 -13.5t53.5 -37.5t33.5 -57t10.5 -72l-4 -65q-4 -40 -19.5 -73t-41 -56.5t-59.5 -36.5t-75 -13q-38 0 -69 13t-53 36t-33.5 54t-11.5 69z" />
<glyph unicode="&#x2026;" horiz-adv-x="1284" d="M68 72q3 35 28.5 59.5t60.5 25.5q36 1 59 -24t20 -61q-2 -35 -27.5 -57.5t-60.5 -23.5t-58.5 22t-21.5 59zM466 72q3 35 28.5 59.5t60.5 25.5q36 1 59 -24t20 -61q-2 -35 -27.5 -57.5t-60.5 -23.5t-58.5 22t-21.5 59zM846 72q3 35 28.5 59.5t60.5 25.5q36 1 59 -24 t20 -61q-2 -35 -27.5 -57.5t-60.5 -23.5t-58.5 22t-21.5 59z" />
<glyph unicode="&#x202f;" horiz-adv-x="381" />
<glyph unicode="&#x2039;" horiz-adv-x="601" d="M95 545l2 19l348 380h114l-342 -395l198 -382h-95z" />
<glyph unicode="&#x203a;" horiz-adv-x="601" d="M13 162l341 394l-197 388h96l224 -382l-2 -20l-348 -380h-114z" />
<glyph unicode="&#x205f;" horiz-adv-x="476" />
<glyph unicode="&#x20ac;" d="M73 563l16 89h185l29 164h-187l17 91l181 -5l1 8q24 121 73.5 225.5t125 181t179 119t235.5 41.5q58 -1 115 -10t114 -23l-24 -108q-51 17 -102.5 26.5t-105.5 10.5q-109 2 -190.5 -33.5t-140 -97.5t-96.5 -147t-60 -182l-2 -12l412 5l-17 -90h-405l-30 -164h408l-16 -89 h-405l-3 -18q-12 -88 -1.5 -170t48 -146t103.5 -103t165 -41q57 -1 111.5 8t109.5 24l-1 -107q-56 -14 -112 -21.5t-114 -6.5q-122 1 -210.5 46.5t-142.5 122t-73.5 178.5t-1.5 216l4 19z" />
<glyph unicode="&#x2122;" horiz-adv-x="1236" d="M241 1387l8 69h382l-8 -69h-157l-79 -468h-73l78 468h-151zM619 919l91 537h88l80 -426l228 426h93l-92 -537h-72l68 401l-212 -400l-51 -1l-76 422l-72 -422h-73z" />
<glyph unicode="&#x25fc;" horiz-adv-x="1080" d="M0 0v1080h1080v-1080h-1080z" />
<glyph unicode="&#xfb02;" horiz-adv-x="1123" d="M126 984l18 98h173l19 134q10 75 38 139t74 109.5t109 71t143 24.5q33 -1 66 -6.5t65 -13.5l-21 -99q-26 7 -53 11t-54 4q-54 0 -96.5 -18.5t-73.5 -51t-50 -76t-27 -93.5l-20 -135h251l-18 -98h-249l-171 -984h-120l171 984h-174zM727 0l267 1536h120l-267 -1536h-120z " />
<glyph unicode="&#xfb03;" horiz-adv-x="1745" d="M126 984l18 98h173l19 134q10 75 38 139t74 109.5t109 71t143 24.5q33 -1 66 -6.5t65 -13.5l-21 -99q-26 7 -53 11t-54 4q-54 0 -96.5 -18.5t-73.5 -51t-50 -76t-27 -93.5l-20 -135h251l-18 -98h-249l-171 -984h-120l171 984h-174zM780 984l17 98h175l15 114 q12 83 44 150.5t83.5 115t121 72.5t155.5 24q71 -1 137.5 -18t131.5 -43l-31 -102q-57 26 -114.5 40.5t-119.5 15.5q-123 1 -196.5 -67.5t-91.5 -186.5l-17 -115h246l-17 -98h-245l-171 -984h-119l171 984h-175zM1346 0l189 1082h119l-188 -1082h-120z" />
<glyph unicode="&#xfb04;" horiz-adv-x="1791" d="M126 984l18 98h173l19 134q10 75 38 139t74 109.5t109 71t143 24.5q33 -1 66 -6.5t65 -13.5l-21 -99q-26 7 -53 11t-54 4q-54 0 -96.5 -18.5t-73.5 -51t-50 -76t-27 -93.5l-20 -135h251l-18 -98h-249l-171 -984h-120l171 984h-174zM794 984l18 98h173l19 134 q10 75 38 139t74 109.5t109 71t143 24.5q33 -1 66 -6.5t65 -13.5l-21 -99q-26 7 -53 11t-54 4q-54 0 -96.5 -18.5t-73.5 -51t-50 -76t-27 -93.5l-20 -135h251l-18 -98h-249l-171 -984h-120l171 984h-174zM1395 0l267 1536h120l-267 -1536h-120z" />
</font>
</defs>
</svg>
